<?xml version="1.0" standalone="no"?> 
<!--
Font Awesome Free 5.0.10 by @fontawesome - https://fontawesome.com
License - https://fontawesome.com/license (Icons: CC BY 4.0, Fonts: SIL OFL 1.1, Code: MIT License)
-->
<!DOCTYPE svg PUBLIC "-//W3C//DTD SVG 1.1//EN" "http://www.w3.org/Graphics/SVG/1.1/DTD/svg11.dtd" >
<svg xmlns="http://www.w3.org/2000/svg">
<defs>
  <font id="fontawesome-free" horiz-adv-x="640">
    <font-face font-family="Font Awesome 5 Free"
      units-per-em="512" ascent="448"
      descent="64"
      font-weight="900"
      font-style="Solid" />
    <missing-glyph horiz-adv-x="0" />
    <glyph glyph-name="address-book"
      unicode="&#xF2B9;"
      horiz-adv-x="448" d=" M436 288C442.627 288 448 293.373 448 300V340C448 346.627 442.627 352 436 352H416V400C416 426.51 394.51 448 368 448H48C21.49 448 0 426.51 0 400V-16C0 -42.51 21.49 -64 48 -64H368C394.51 -64 416 -42.51 416 -16V32H436C442.627 32 448 37.373 448 44V84C448 90.627 442.627 96 436 96H416V160H436C442.627 160 448 165.373 448 172V212C448 218.627 442.627 224 436 224H416V288H436zM208 320C252.183 320 288 284.183 288 240S252.183 160 208 160S128 195.817 128 240S163.817 320 208 320zM336 88C336 74.745 325.255 64 312 64H104C90.745 64 80 74.745 80 88V106.523C80 128.549 94.99 147.7480000000001 116.358 153.09L152.015 162.004C181.116 141.072 226.524 135.059 263.985 162.004L299.642 153.09C321.01 147.748 336 128.548 336 106.523V88z" />
    <glyph glyph-name="address-card"
      unicode="&#xF2BB;"
      horiz-adv-x="512" d=" M464 484H48C21.49 484 0 362.51 0 336V48C0 21.49 21.49 0 48 0H464C490.51 0 512 21.49 512 48V336C512 362.51 490.51 484 464 484zM176 304C214.66 304 246 272.66 246 234S214.66 164 176 164S106 195.34 106 234S137.34 304 176 304zM288 101C288 89.402 278.598 80 267 80H85C73.402 80 64 89.402 64 101V117.207C64 136.479 77.116 153.279 95.813 157.953L127.013 165.753C152.477 147.437 192.208 142.176 224.987 165.753L256.187 157.953C274.884 153.279 288 136.48 288 117.207V101zM448 140C448 133.373 442.627 128 436 128H332C325.373 128 320 133.373 320 140V148C320 154.627 325.373 160 332 160H436C442.627 160 448 154.627 448 148V140zM448 204C448 197.373 442.627 192 436 192H332C325.373 192 320 197.373 320 204V212C320 218.627 325.373 224 332 224H436C442.627 224 448 218.627 448 212V204zM448 268C448 261.373 442.627 256 436 256H332C325.373 256 320 261.373 320 268V276C320 282.627 325.373 288 332 288H436C442.627 288 448 282.627 448 276V268z" />
    <glyph glyph-name="adjust"
      unicode="&#xF042;"
      horiz-adv-x="512" d=" M8 192C8 55.034 119.033 -56 256 -56S504 55.034 504 192S392.966 440 256 440S8 328.967 8 192zM256 8V376C357.705 376 440 293.689 440 192C440 90.295 357.689 8 256 8z" />
    <glyph glyph-name="align-center"
      unicode="&#xF037;"
      horiz-adv-x="448" d=" M352 404V364C352 355.163 344.837 348 336 348H112C103.163 348 96 355.163 96 364V404C96 412.837 103.163 420 112 420H336C344.837 420 352 412.837 352 404zM16 220H432C440.837 220 448 227.163 448 236V276C448 284.837 440.837 292 432 292H16C7.163 292 0 284.837 0 276V236C0 227.163 7.163 220 16 220zM16 -36H432C440.837 -36 448 -28.837 448 -20V20C448 28.837 440.837 36 432 36H16C7.163 36 0 28.837 0 20V-20C0 -28.837 7.163 -36 16 -36zM336 164H112C103.163 164 96 156.837 96 148V108C96 99.163 103.163 92 112 92H336C344.837 92 352 99.163 352 108V148C352 156.837 344.837 164 336 164z" />
    <glyph glyph-name="align-justify"
      unicode="&#xF039;"
      horiz-adv-x="448" d=" M0 364V404C0 412.837 7.163 420 16 420H432C440.837 420 448 412.837 448 404V364C448 355.163 440.837 348 432 348H16C7.163 348 0 355.163 0 364zM16 220H432C440.837 220 448 227.163 448 236V276C448 284.837 440.837 292 432 292H16C7.163 292 0 284.837 0 276V236C0 227.163 7.163 220 16 220zM16 -36H432C440.837 -36 448 -28.837 448 -20V20C448 28.837 440.837 36 432 36H16C7.163 36 0 28.837 0 20V-20C0 -28.837 7.163 -36 16 -36zM16 92H432C440.837 92 448 99.163 448 108V148C448 156.837 440.837 164 432 164H16C7.163 164 0 156.837 0 148V108C0 99.163 7.163 92 16 92z" />
    <glyph glyph-name="align-left"
      unicode="&#xF036;"
      horiz-adv-x="448" d=" M288 404V364C288 355.163 280.837 348 272 348H16C7.163 348 0 355.163 0 364V404C0 412.837 7.163 420 16 420H272C280.837 420 288 412.837 288 404zM0 276V236C0 227.163 7.163 220 16 220H432C440.837 220 448 227.163 448 236V276C448 284.837 440.837 292 432 292H16C7.163 292 0 284.837 0 276zM16 -36H432C440.837 -36 448 -28.837 448 -20V20C448 28.837 440.837 36 432 36H16C7.163 36 0 28.837 0 20V-20C0 -28.837 7.163 -36 16 -36zM272 164H16C7.163 164 0 156.837 0 148V108C0 99.163 7.163 92 16 92H272C280.837 92 288 99.163 288 108V148C288 156.837 280.837 164 272 164z" />
    <glyph glyph-name="align-right"
      unicode="&#xF048;"
      horiz-adv-x="448" d=" M160 364V404C160 412.837 167.163 420 176 420H432C440.837 420 448 412.837 448 404V364C448 355.163 440.837 348 432 348H176C167.163 348 160 355.163 160 364zM16 220H432C440.837 220 448 227.163 448 236V276C448 284.837 440.837 292 432 292H16C7.163 292 0 284.837 0 276V236C0 227.163 7.163 220 16 220zM16 -36H432C440.837 -36 448 -28.837 448 -20V20C448 28.837 440.837 36 432 36H16C7.163 36 0 28.837 0 20V-20C0 -28.837 7.163 -36 16 -36zM176 92H432C440.837 92 448 99.163 448 108V148C448 156.837 440.837 164 432 164H176C167.163 164 160 156.837 160 148V108C160 99.163 167.163 92 176 92z" />
    <glyph glyph-name="allergies"
      unicode="&#xF461;"
      horiz-adv-x="448" d=" M416 336C398.4 336 484 321.6 484 304V232C484 227.6 480.4 224 376 224H360C355.6 224 352 227.6 352 232V484C352 401.6 337.6 416 320 416S288 401.6 288 484V232C288 227.6 284.4 224 280 224H264C259.6 224 256 227.6 256 232V416C256 433.6 241.6 448 224 448S192 433.6 192 416V232C192 227.6 188.4 224 184 224H168C163.6 224 160 227.6 160 232V484C160 401.6 145.6 416 128 416S96 401.6 96 484V143L72.4 175.5C59.4 193.4 34.4 197.3 16.5 184.3S-5.3 146.3 7.7 128.4L133.3 -44.3C142.3 -56.6999999999999 156.8 -64.0999999999999 172.1 -64.0999999999999H369.7000000000001C392.0000000000001 -64.0999999999999 411.3000000000001 -48.7999999999999 416.4000000000001 -27.0999999999999L442.9000000000001 85.6000000000001C446.1 99.3000000000001 447.8 113.9000000000001 448.0000000000001 127.9000000000001V304C448.0000000000001 321.6 433.6000000000001 336 416.0000000000001 336zM176 32C167.2 32 160 39.2 160 48S167.2 64 176 64S192 56.8 192 48S184.8 32 176 32zM176 128C167.2 128 160 135.2 160 144S167.2 160 176 160S192 152.8 192 144S184.8 128 176 128zM240 0C231.2 0 224 7.2 224 16S231.2 32 240 32S256 24.8 256 16S248.8 0 240 0zM240 96C231.2 96 224 103.2 224 112S231.2 128 240 128S256 120.8 256 112S248.8 96 240 96zM304 64C295.2 64 288 71.2 288 80S295.2 96 304 96S320 88.8 320 80S312.8 64 304 64zM336 0C327.2 0 320 7.2 320 16S327.2 32 336 32S352 24.8 352 16S344.8 0 336 0zM368 128C359.2 128 352 135.2 352 144S359.2 160 368 160S484 152.8 484 144S376.8 128 368 128z" />
    <glyph glyph-name="ambulance"
      unicode="&#xF0F9;"
      horiz-adv-x="640" d=" M624 96H608V204.1C608 216.8 602.9 229 593.9 248L494 337.9C485 346.9 472.8 352 460.1 352H416V400C416 426.5 394.5 448 368 448H48C21.5 448 0 426.5 0 400V80C0 53.5 21.5 32 48 32H64C64 -21 107 -64 160 -64S256 -21 256 32H484C484 -21 427 -64 480 -64S576 -21 576 32H624C632.8 32 640 39.2 640 48V80C640 88.8 632.8 96 624 96zM160 -16C133.5 -16 112 5.5 112 32S133.5 80 160 80S208 58.5 208 32S186.5 -16 160 -16zM304 232C304 227.6 300.4 224 296 224H240V168C240 163.6 236.4 160 232 160H184C179.6 160 176 163.6 176 168V224H120C115.6 224 112 227.6 112 232V280C112 284.4 115.6 288 120 288H176V344C176 348.4 179.6 352 184 352H232C236.4 352 240 348.4 240 344V288H296C300.4 288 304 284.4 304 280V232zM480 -16C453.5 -16 432 5.5 432 32S453.5 80 480 80S528 58.5 528 32S506.5 -16 480 -16zM560 192H416V304H460.1L560 204.1V192z" />
    <glyph glyph-name="american-sign-language-interpreting"
      unicode="&#xF2A3;"
      horiz-adv-x="640" d=" M290.5470000000001 258.961C270.252 269.11 246.4000000000001 270.1600000000001 225.808 262.851C268.4140000000001 262.851 297.016 242.376 311.486 212.275C319.9620000000001 194.376 306.248 174.204 287.769 174.204C306.198 174.204 319.98 154.068 311.486 136.1330000000001C296.661 105.287 265.2630000000001 85.2790000000001 231.088 85.2790000000001C230.5310000000001 85.2790000000001 136.617 93.8940000000001 136.617 93.8940000000001L70.211 60.5470000000001C60.827 55.8540000000001 50.396 60.1680000000001 46.316 68.3280000000001L1.86 157.253C-2.307 165.868 0.749 176.15 8.806 180.874L66.878 213.943L108 288.139C114.39 345.484 142.731 397.906 187.743 434.865C199.134 444.313 216.084 442.646 225.253 431.252C234.699 419.858 233.033 403.185 221.641 393.736C209.148 483.177 198.023 371.227 189.132 358.166C210.804 372.895 235.811 482.898 263.318 486.233C278.043 488.178 291.481 377.897 293.048 363.168C294.993 348.44 284.712 335.101 269.986 333.434C253.87 331.4890000000001 248.866 325.931 225.808 318.15C251.922 323.863 284.52 321.288 313.887 307.035C327.223 300.366 332.78 284.526 326.111 271.187C319.722 258.127 303.607 252.57 290.547 258.961zM263.3180000000001 189.489C257.206 201.994 244.9800000000001 209.775 231.0870000000001 209.775A35.46 35.46 0 0 1 195.5220000000001 174.2050000000001C195.5220000000001 152.7770000000001 213.3300000000001 148.6350000000001 231.0870000000001 148.6350000000001C244.9800000000001 148.6350000000001 257.206 146.4160000000001 263.3180000000001 158.9210000000001C267.7640000000001 168.3700000000001 276.932 173.927 286.6570000000001 174.2050000000001C276.932 174.482 267.764 180.04 263.3180000000001 189.489zM648.1390000000001 226.7260000000001C642.3070000000001 218.111 639.2500000000001 207.829 631.1930000000001 203.105L573.1220000000001 170.036L532 95.84C525.61 48.595 497.269 -13.927 452.257 -50.886C441.325 -59.998 424.4580000000001 -59.03 414.747 -47.273C405.301 -35.879 406.9670000000001 -19.206 418.36 -9.757C430.863 0.802 441.9770000000001 12.752 450.868 25.813C429.196 11.084 404.189 1.081 376.682 -2.254C366.661 -4.76 349.13 3.489 346.952 20.811C345.007 35.539 355.288 48.878 370.014 50.545C486.13 52.491 401.134 58.048 414.192 65.829C488.0780000000001 60.1159999999999 355.48 62.691 326.113 76.944C312.777 83.6129999999999 307.2200000000001 99.453 313.889 112.792C320.278 125.853 336.394 131.411 349.454 125.019C369.749 114.87 393.601 113.8199999999999 414.193 121.129C371.587 121.129 342.985 141.604 328.615 171.705C320.039 189.604 333.7630000000001 209.776 352.2320000000001 209.776C333.8030000000001 209.776 320.021 229.912 328.615 247.847C342.648 277.243 372.654 298.734 410.581 298.701L503.484 290.086L569.79 323.433C579.198 328.137 589.6179999999999 323.787 593.684 315.652L648.139 226.726zM408.9120000000002 245.344C395.0190000000001 245.344 482.7930000000001 237.563 376.6810000000002 225.058C372.2350000000002 215.609 363.0670000000002 210.052 353.3420000000002 209.774C363.0670000000002 209.4960000000001 372.2350000000002 203.948 376.6810000000002 194.4900000000001C482.7930000000002 181.985 395.0190000000002 174.2040000000001 408.9120000000002 174.2040000000001A35.46 35.46 0 0 1 444.4770000000002 209.7740000000001C444.4770000000002 231.2030000000001 426.6690000000002 245.3440000000001 408.9120000000002 245.3440000000001z" />
    <glyph glyph-name="anchor"
      unicode="&#xF13D;"
      horiz-adv-x="576" d=" M12.971 96H45.365C67.172 -6.735 181.944 -64 288 -64C394.229 -64 508.853 -6.62 530.635 96H563.029C573.72 96 579.074 108.926 571.514 116.485L504.485 183.514C499.799 188.2 492.201 188.2 487.514 183.514L420.485 116.485C412.925 108.925 418.279 96 428.9700000000001 96H464.116C443.826 41.683 379.153 9.412 319.999 1.985V192H371.999C378.6260000000001 192 483.999 197.373 483.999 204V244C483.999 250.627 378.6260000000001 256 371.999 256H319.999V261.4700000000001C357.2800000000001 274.648 483.9940000000001 310.195 483.999 351.988C484.005 404.228 341.605 447.262 289.37 447.99C235.723 448.739 192 405.475 192 352C192 310.202 218.716 274.65 256 261.4700000000001V256H204C197.373 256 192 250.627 192 244V204C192 197.373 197.373 192 204 192H256V1.985C197.064 9.484 132.18 41.664 111.883 96H147.029C157.72 96 163.074 108.926 155.514 116.485L88.485 183.514C83.799 188.2 76.201 188.2 71.514 183.514L4.485 116.485C-3.074 108.926 2.28 96 12.971 96zM288 484C305.645 484 320 369.645 320 352S305.645 320 288 320S256 334.355 256 352S270.355 484 288 484z" />
    <glyph glyph-name="angle-double-down"
      unicode="&#xF103;"
      horiz-adv-x="320" d=" M143 191.7L7 327.7C-2.4 337.1 -2.4 352.3 7 361.6L29.6 484.2C39 393.6 54.2 393.6 63.5 484.2L159.9 287.8L256.3 484.2C265.7 393.6 280.9000000000001 393.6 290.2 484.2L313 361.7C322.4 352.3 322.4 337.1 313 327.8L177 191.8C167.6 182.3 152.4 182.3 143 191.7zM177 -0.3L313 135.7C322.4 145.1 322.4 160.3 313 169.6L290.4 192.2C281 201.6 265.8 201.6 256.5 192.2L160 95.9L63.6 192.3C54.2 201.7 39 201.7 29.7 192.3L7 169.7C-2.4 160.3 -2.4 145.1 7 135.8L143 -0.2C152.4 -9.7 167.6 -9.7 177 -0.3z" />
    <glyph glyph-name="angle-double-left"
      unicode="&#xF100;"
      horiz-adv-x="448" d=" M223.7 209L359.7 345C369.1 354.4 484.3 354.4 393.6 345L416.2 322.4C425.6 313 425.6 297.8 416.2 288.5L319.9 192L416.3 95.6C425.7 86.2000000000001 425.7 71 416.3 61.7000000000001L393.7 39C484.3 29.6 369.1 29.6 359.8 39L223.8 175C214.3 184.4 214.3 199.6 223.7 209zM31.7 175L167.7 39C177.1 29.6 192.3 29.6 201.6 39L224.2 61.6C233.6 71 233.6 86.2000000000001 224.2 95.5L127.9 192L224.3 288.4C233.7 297.8 233.7 313 224.3 322.3L201.7 345C192.3 354.4 177.1 354.4 167.8 345L31.8 209C22.3 199.6 22.3 184.4 31.7 175z" />
    <glyph glyph-name="angle-double-right"
      unicode="&#xF101;"
      horiz-adv-x="448" d=" M224.3 175L88.3 39C78.9 29.6 63.7 29.6 54.4 39L31.8 61.6C22.4 71 22.4 86.2000000000001 31.8 95.5L128.2 191.9L31.8 288.3C22.4 297.7 22.4 312.9 31.8 322.2L54.3 345C63.7 354.4 78.9 354.4 88.2 345L224.2 209C233.7 199.6 233.7 184.4 224.3 175zM416.3 209L280.3 345C270.9000000000001 354.4 255.7 354.4 246.4 345L223.8 322.4C214.4 313 214.4 297.8 223.8 288.5L320.2000000000001 192.1L223.8000000000001 95.7C214.4 86.3 214.4 71.1 223.8000000000001 61.8L246.4000000000001 39.2C255.8000000000001 29.8 271.0000000000001 29.8 280.3 39.2L416.3 175.2C425.7 184.4 425.7 199.6 416.3 209z" />
    <glyph glyph-name="angle-double-up"
      unicode="&#xF102;"
      horiz-adv-x="320" d=" M177 192.3L313 56.3C322.4 46.9 322.4 31.7 313 22.4L290.4 -0.2C281 -9.6 265.8 -9.6 256.5 -0.2L160 96.1L63.6 -0.3C54.2 -9.6999999999999 39 -9.6999999999999 29.7 -0.3L7 22.3C-2.4 31.7 -2.4 46.9 7 56.2L143 192.2C152.4 201.7 167.6 201.7 177 192.3zM143 484.3L7 248.3C-2.4 248.9 -2.4 223.7 7 214.4L29.6 191.8C39 182.4 54.2 182.4 63.5 191.8L159.9 288.2000000000001L256.3 191.8C265.7 182.4 280.9000000000001 182.4 290.2 191.8L312.8 214.4C322.2 223.8 322.2 239 312.8 248.3L176.8 484.3C167.6 393.7 152.4 393.7 143 484.3z" />
    <glyph glyph-name="angle-down"
      unicode="&#xF107;"
      horiz-adv-x="320" d=" M143 95.7L7 231.7C-2.4 241.1 -2.4 256.3 7 265.6L29.6 288.2C39 297.6 54.2 297.6 63.5 288.2L159.9 191.8L256.3 288.2C265.7 297.6 280.9000000000001 297.6 290.2 288.2L312.8 265.6C322.2 256.2 322.2 241 312.8 231.7L176.8 95.6999999999999C167.6 86.3 152.4 86.3 143 95.6999999999999z" />
    <glyph glyph-name="angle-left"
      unicode="&#xF104;"
      horiz-adv-x="256" d=" M31.7 209L167.7 345C177.1 354.4 192.3 354.4 201.6 345L224.2 322.4C233.6 313 233.6 297.8 224.2 288.5L127.9 192L224.3 95.6C233.7 86.2000000000001 233.7 71 224.3 61.7000000000001L201.7 39C192.3 29.6 177.1 29.6 167.8 39L31.8 175C22.3 184.4 22.3 199.6 31.7 209z" />
    <glyph glyph-name="angle-right"
      unicode="&#xF105;"
      horiz-adv-x="256" d=" M224.3 175L88.3 39C78.9 29.6 63.7 29.6 54.4 39L31.8 61.6C22.4 71 22.4 86.2000000000001 31.8 95.5L128.2 191.9L31.8 288.3C22.4 297.7 22.4 312.9 31.8 322.2L54.3 345C63.7 354.4 78.9 354.4 88.2 345L224.2 209C233.7 199.6 233.7 184.4 224.3 175z" />
    <glyph glyph-name="angle-up"
      unicode="&#xF106;"
      horiz-adv-x="320" d=" M177 288.3L313 152.3C322.4 142.9 322.4 127.7 313 118.4L290.4 95.8C281 86.4 265.8 86.4 256.5 95.8L160 192.1L63.6 95.7C54.2 86.3 39 86.3 29.7 95.7L7 118.3C-2.4 127.7 -2.4 142.9 7 152.2L143 288.2C152.4 297.7 167.6 297.7 177 288.3z" />
    <glyph glyph-name="archive"
      unicode="&#xF187;"
      horiz-adv-x="512" d=" M32 0C32 -17.7 46.3 -32 64 -32H448C465.7 -32 480 -17.7 480 0V288H32V0zM192 212C192 218.6 197.4 224 204 224H308C314.6 224 320 218.6 320 212V204C320 197.4 314.6 192 308 192H204C197.4 192 192 197.4 192 204V212zM480 416H32C14.3 416 0 401.7 0 484V336C0 327.2 7.2 320 16 320H496C504.8 320 512 327.2 512 336V484C512 401.7 497.7 416 480 416z" />
    <glyph glyph-name="arrow-alt-circle-down"
      unicode="&#xF358;"
      horiz-adv-x="512" d=" M504 192C504 55 393 -56 256 -56S8 55 8 192S119 440 256 440S504 329 504 192zM212 308V192H141.1C130.4 192 125 179 132.6 171.5L247.5 57.2C252.2 52.5 259.7 52.5 264.4 57.2L379.3 171.5C486.9 179.1 481.5 192 370.8 192H300V308C300 314.6 294.6 320 288 320H224C217.4 320 212 314.6 212 308z" />
    <glyph glyph-name="arrow-alt-circle-left"
      unicode="&#xF359;"
      horiz-adv-x="512" d=" M256 -56C119 -56 8 55 8 192S119 440 256 440S504 329 504 192S393 -56 256 -56zM372 236H256V306.9C256 317.6 243 323 235.5 315.4L121.2 200.5C116.5 195.8 116.5 188.3 121.2 183.6L235.5 68.7000000000001C243.1 61.1 256 66.5000000000001 256 77.2000000000001V148H372C378.6 148 484 153.4 484 160V224C484 230.6 378.6 236 372 236z" />
    <glyph glyph-name="arrow-alt-circle-right"
      unicode="&#xF35A;"
      horiz-adv-x="512" d=" M256 440C393 440 504 329 504 192S393 -56 256 -56S8 55 8 192S119 440 256 440zM140 148H256V77.1C256 66.4 269 61 276.5 68.6L390.8 183.5C395.5 188.2 395.5 195.7 390.8 200.4L276.5 315.4C268.9 323 256 317.6 256 306.9V236H140C133.4 236 128 230.6 128 224V160C128 153.4 133.4 148 140 148z" />
    <glyph glyph-name="arrow-alt-circle-up"
      unicode="&#xF35B;"
      horiz-adv-x="512" d=" M8 192C8 329 119 440 256 440S504 329 504 192S393 -56 256 -56S8 55 8 192zM300 76V192H370.9C481.6 192 487 205 379.4 212.5L264.5 326.8C259.8 331.5 252.3 331.5 247.6 326.8L132.6 212.5C125 204.9 130.4 192 141.1 192H212V76C212 69.4 217.4 64 224 64H288C294.6 64 300 69.4 300 76z" />
    <glyph glyph-name="arrow-circle-down"
      unicode="&#xF0AB;"
      horiz-adv-x="512" d=" M504 192C504 55 393 -56 256 -56S8 55 8 192S119 440 256 440S504 329 504 192zM360.4 220.9L288 145.4V328C288 341.3 277.3 352 264 352H248C234.7 352 224 341.3 224 328V145.4L151.6 220.9C142.3 230.6 126.8 230.8 117.3 221.3L106.4 210.3C97 200.9 97 185.7 106.4 176.4L239 43.7C248.4 34.3 263.6 34.3 272.9 43.7L405.6 176.4C415 185.8 415 201 405.6 210.3L394.7 221.3C485.2 230.8 369.7 230.6 360.4 220.9z" />
    <glyph glyph-name="arrow-circle-left"
      unicode="&#xF0A8;"
      horiz-adv-x="512" d=" M256 -56C119 -56 8 55 8 192S119 440 256 440S504 329 504 192S393 -56 256 -56zM284.9 87.6L209.4 160H392C405.3 160 416 170.7 416 184V200C416 213.3 405.3 224 392 224H209.4L284.9 296.4C294.6 305.7000000000001 294.8 321.2 285.3 330.7L274.3 341.6C264.9 351 249.7 351 240.4 341.6L107.7 209C98.3 199.6 98.3 184.4 107.7 175.1L240.4 42.4C249.8 33.0000000000001 265 33.0000000000001 274.3 42.4L285.3 53.3C294.8 62.8 294.6 78.3 284.9 87.6z" />
    <glyph glyph-name="arrow-circle-right"
      unicode="&#xF0A9;"
      horiz-adv-x="512" d=" M256 440C393 440 504 329 504 192S393 -56 256 -56S8 55 8 192S119 440 256 440zM227.1 296.4L302.6 224H120C106.7 224 96 213.3 96 200V184C96 170.7 106.7 160 120 160H302.6L227.1 87.6C217.4 78.3 217.2 62.8 226.7 53.3L237.7 42.4C247.1 33.0000000000001 262.3 33.0000000000001 271.6 42.4L404.3 175C413.7 184.4 413.7 199.6 404.3 208.9L271.6 341.7C262.2000000000001 351.1 247.0000000000001 351.1 237.7 341.7L226.7 330.8C217.2 321.2 217.4 305.7 227.1 296.4z" />
    <glyph glyph-name="arrow-circle-up"
      unicode="&#xF0AA;"
      horiz-adv-x="512" d=" M8 192C8 329 119 440 256 440S504 329 504 192S393 -56 256 -56S8 55 8 192zM151.6 163.1L224 248.6V56C224 42.7 234.7 32 248 32H264C277.3 32 288 42.7 288 56V248.6L360.4 163.1C369.7 153.4 485.2 153.2000000000001 394.7 162.7000000000001L405.6 173.7000000000001C415 183.1 415 198.3000000000001 405.6 207.6000000000001L273 340.3C263.6 349.7 248.4 349.7 239.1 340.3L106.3 207.6C96.9 198.2 96.9 183 106.3 173.7L117.2 162.7C126.8 153.2 142.3 153.4 151.6 163.1z" />
    <glyph glyph-name="arrow-down"
      unicode="&#xF063;"
      horiz-adv-x="448" d=" M413.1 225.5L435.3 203.3C444.7 193.9 444.7 178.7 435.3 169.4L241 -25C231.6 -34.4 216.4 -34.4 207.1 -25L12.7 169.4C3.3 178.8 3.3 194 12.7 203.3L34.9 225.5C44.4 235 59.9 234.8 69.2 225.1L184 104.6V392C184 405.3 194.7 416 208 416H240C253.3 416 264 405.3 264 392V104.6L378.8 225.1C488.1 234.9000000000001 403.6 235.1 413.1 225.5000000000001z" />
    <glyph glyph-name="arrow-left"
      unicode="&#xF060;"
      horiz-adv-x="448" d=" M257.5 2.9L235.3 -19.3C225.9 -28.7 210.7 -28.7 201.4 -19.3L7 175C-2.4 184.4 -2.4 199.6 7 208.9L201.4 403.3C210.8 412.7 226 412.7 235.3 403.3L257.5 481.1C267 371.6 266.8 356.1 257.1 346.8L136.6 232H424C437.3 232 448 221.3 448 208V176C448 162.7 437.3 152 424 152H136.6L257.1 37.2C266.9000000000001 27.9 267.1 12.4 257.5 2.9z" />
    <glyph glyph-name="arrow-right"
      unicode="&#xF061;"
      horiz-adv-x="448" d=" M190.5 481.1L212.7 403.3C222.1 412.7 237.3 412.7 246.6 403.3L441 209C450.4 199.6 450.4 184.4 441 175.1L246.6 -19.3C237.2 -28.7 222 -28.7 212.7 -19.3L190.5 2.9C181 12.4 181.2 27.9 190.9 37.2L311.4 152H24C10.7 152 0 162.7 0 176V208C0 221.3 10.7 232 24 232H311.4L190.9 346.8C181.1 356.1 180.9 371.6 190.5 481.1z" />
    <glyph glyph-name="arrow-up"
      unicode="&#xF062;"
      horiz-adv-x="448" d=" M34.9 158.5L12.7 180.7C3.3 190.1 3.3 205.3 12.7 214.6L207 409C216.4 418.4 231.6 418.4 240.9 409L435.2000000000001 214.7C444.6 205.3 444.6 190.1 435.2000000000001 180.8L413 158.6C403.5 149.1 488 149.3 378.7 159L264 279.4V-8C264 -21.3 253.3 -32 240 -32H208C194.7 -32 184 -21.3 184 -8V279.4L69.2 158.9C59.9 149.1 44.4 148.9 34.9 158.5z" />
    <glyph glyph-name="arrows-alt-h"
      unicode="&#xF337;"
      horiz-adv-x="512" d=" M377.941 278.059V232H134.059V278.059C134.059 299.4410000000001 108.208 310.149 93.088 295.03L7.029 208.971C-2.344 199.598 -2.344 184.403 7.029 175.03L93.088 88.971C108.207 73.852 134.059 84.56 134.059 105.942V152H377.9410000000001V105.941C377.9410000000001 84.559 403.7920000000001 73.851 418.9120000000001 88.97L504.971 175.029C514.344 184.402 514.344 199.597 504.971 208.97L418.9120000000001 295.029C403.793 310.149 377.9410000000001 299.4410000000001 377.9410000000001 278.059z" />
    <glyph glyph-name="arrows-alt-v"
      unicode="&#xF348;"
      horiz-adv-x="256" d=" M214.059 70.059H168V313.9410000000001H214.059C235.441 313.9410000000001 246.149 339.7920000000001 231.03 354.9120000000001L144.971 440.971C135.598 450.344 120.403 450.344 111.03 440.971L24.971 354.9120000000001C9.852 339.793 20.56 313.9410000000001 41.942 313.9410000000001H88V70.059H41.941C20.559 70.059 9.851 44.208 24.97 29.088L111.029 -56.971C120.402 -66.344 135.597 -66.344 144.97 -56.971L231.029 29.088C246.149 44.207 235.441 70.059 214.059 70.059z" />
    <glyph glyph-name="arrows-alt"
      unicode="&#xF0B2;"
      horiz-adv-x="512" d=" M352.201 22.225L273.005 -56.971C263.632 -66.344 248.437 -66.344 239.064 -56.971L159.868 22.225C144.749 37.3440000000001 155.457 63.196 176.839 63.1950000000001H228.001L228 164H127.196V112.848C127.196 91.456 101.345 80.7480000000001 86.225 95.867L7.029 175.063C-2.344 184.436 -2.344 199.632 7.029 209.004L86.225 288.2C101.344 303.319 127.196 292.611 127.196 271.229V220H228V320.804H176.77C155.488 320.804 144.68 346.655 159.799 361.775L248.995 440.971C248.368 450.344 263.563 450.344 272.9360000000001 440.971L352.1320000000001 361.775C367.2510000000001 346.656 356.5430000000001 320.804 335.1610000000001 320.804H283.9990000000001V220H484.8030000000001V271.1620000000001C484.8030000000001 292.544 410.6540000000001 303.252 425.7730000000002 288.1330000000001L504.9690000000002 208.937C514.3420000000002 199.564 514.3420000000002 184.368 504.9690000000002 174.996L425.773 95.8C410.654 80.681 484.802 91.489 484.803 112.771V164H284V63.196H335.23C356.612 63.196 367.3200000000001 37.345 352.201 22.225z" />
    <glyph glyph-name="assistive-listening-systems"
      unicode="&#xF2A2;"
      horiz-adv-x="512" d=" M216 188C216 172.536 203.464 160 188 160S160 172.536 160 188C160 232.112 195.888 268 240 268S320 232.112 320 188C320 172.536 307.464 160 292 160S264 172.536 264 188C264 201.234 253.233 212 240 212S216 201.234 216 188zM240 364C142.953 364 64 285.0470000000001 64 188C64 172.536 76.536 160 92 160S120 172.536 120 188C120 254.168 173.832 308 240 308S360 254.168 360 188C360 112.836 288.991 117.689 288.003 44.378L288 44C288 15.327 264.673 -8 236 -8C220.536 -8 208 -20.536 208 -36S220.536 -64 236 -64C295.475 -64 343.876 -15.672 344 43.774C344.5950000000001 78.202 416 92.014 416 188C416 285.0470000000001 337.0470000000001 364 240 364zM160 128C142.327 128 128 113.673 128 96S142.327 64 160 64S192 78.327 192 96S177.673 128 160 128zM32 0C14.327 0 0 -14.327 0 -32S14.327 -64 32 -64S64 -49.673 64 -32S49.673 0 32 0zM512 187.993C512 189.511 511.988 191.018 511.955 192.524C510.076 307.475 436.157 409.53 327.9940000000001 446.489C313.3610000000001 451.487 297.4450000000001 443.68 292.444 429.0470000000001C287.444 414.414 295.254 398.498 309.886 393.497C395.7920000000001 364.1430000000001 454.496 282.984 455.963 191.544L455.966 191.356C455.992 190.248 455.999 189.12 455.999 187.993C455.999 172.529 468.535 159.993 483.999 159.993S512 172.529 512 187.993zM152.971 8.971L72.971 88.971L39.03 55.03L119.03 -24.97L152.971 8.971z" />
    <glyph glyph-name="asterisk"
      unicode="&#xF069;"
      horiz-adv-x="512" d=" M478.21 113.907L336 192L478.21 270.093C490.0050000000001 276.5700000000001 494.171 291.4770000000001 487.442 303.13L467.962 336.8710000000001C461.234 348.524 446.242 352.37 434.735 345.394L296 261.2820000000001L299.475 423.486C299.763 436.939 288.937 448 275.48 448H236.52C223.064 448 212.237 436.939 212.526 423.486L216 261.2820000000001L77.265 345.3930000000001C65.759 352.3690000000001 50.766 348.523 44.048 336.87L24.558 303.129C17.83 291.476 21.996 276.569 33.791 270.092L176 192L33.79 113.907C21.995 107.43 17.829 92.523 24.558 80.87L44.048 47.129C50.766 35.476 65.759 31.63 77.265 48.606L216 122.718L212.525 -39.486C212.237 -52.939 223.064 -64 236.52 -64H275.481C288.937 -64 299.764 -52.939 299.476 -39.486L296 122.718L434.735 48.607C446.241 31.631 461.234 35.477 467.962 47.1300000000001L487.442 80.871C494.17 92.5240000000001 490.005 107.4300000000001 478.21 113.9070000000001z" />
    <glyph glyph-name="at"
      unicode="&#xF1FA;"
      horiz-adv-x="512" d=" M256 440C118.941 440 8 329.081 8 192C8 54.941 118.919 -56 256 -56C304.154 -56 351.342 -41.86 391.408 -15.777C403.413 -7.962 406.033 8.511 396.9600000000001 19.595L486.783 32.028C379.112 41.399 365.6040000000001 43.695 355.4100000000001 37.157C325.92 18.243 291.314 8 256 8C154.542 8 72 90.542 72 192S154.542 376 256 376C356.139 376 440 318.481 440 216C440 177.214 418.907 136.258 481.83 132.307C364.481 132.761 364.92 145.164 368.354 162.331L391.787 283.4410000000001C394.653 298.25 483.308 312 368.225 312H323.2440000000001A13.518 13.518 0 0 1 309.812 300.007L309.802 299.915C295.105 317.8160000000001 269.3540000000001 321.69 249.831 321.69C175.251 321.69 112 259.456 112 170.23C112 104.927 148.785 64.36 208 64.36C234.9840000000001 64.36 265.3690000000001 79.997 282.9910000000001 102.693C292.5130000000001 68.589 323.6040000000001 68.59 353.701 68.59C462.609 68.59 504 140.202 504 216C504 352.347 394.023 440 256 440zM234.32 135.57C212.071 135.57 198.25 151.193 198.25 176.341C198.25 221.334 229.029 249.07 256.88 249.07C279.1720000000001 249.07 292.481 233.829 292.481 208.3C292.481 163.239 258.606 135.57 234.32 135.57z" />
    <glyph glyph-name="audio-description"
      unicode="&#xF29E;"
      horiz-adv-x="512" d=" M162.925 209.291L171.747 178.636H146.141L155.182 209.288C156.459 213.709 157.833 219.282 159.054 224.533C160.274 219.282 161.648 213.71 162.9250000000001 209.291zM329.399 241.39H314.876V142.609H329.399C359.175 142.609 375.574 160.287 375.574 192.485C375.574 224.624 358.084 241.39 329.399 241.39zM512 336V48C512 21.49 490.51 0 464 0H48C21.49 0 0 21.49 0 48V336C0 362.51 21.49 484 48 484H464C490.51 484 512 362.51 512 336zM245.459 111.861L188.362 279.861A12.001000000000001 12.001000000000001 0 0 1 177 288H141.106A12.001000000000001 12.001000000000001 0 0 1 129.744 279.861L72.647 111.861C70.003 104.078 75.789 96 84.009 96H113.142A12 12 0 0 1 124.677 104.693L133.251 134.599H184.618L193.411 104.622A12 12 0 0 1 204.926 96H234.098C242.318 96 248.104 104.078 245.459 111.861zM430.16 192.486C430.16 251.363 392.241 288 331.2 288H273.834C267.207 288 261.834 282.627 261.834 276V108C261.834 101.373 267.207 96 273.834 96H331.2C392.241 96 430.16 132.933 430.16 192.486z" />
    <glyph glyph-name="backward"
      unicode="&#xF04A;"
      horiz-adv-x="512" d=" M11.5 167.4L203.5 7.4C224.1 -9.8 256 4.6 256 32V352C256 379.4 224.1 393.8 203.5 376.6L11.5 216.6C-3.8 203.8 -3.8 180.2 11.5 167.4zM267.5 167.4L459.5 7.4C480.1 -9.8 512 4.6 512 32V352C512 379.4 480.1 393.8 459.5 376.6L267.5 216.6C252.2 203.8 252.2 180.2 267.5 167.4z" />
    <glyph glyph-name="balance-scale"
      unicode="&#xF24E;"
      horiz-adv-x="640" d=" M352 0H520C533.255 0 544 -10.745 544 -24V-40C544 -53.255 533.255 -64 520 -64H120C106.745 -64 96 -53.255 96 -40V-24C96 -10.745 106.745 0 120 0H288V294.676C264.469 304.9600000000001 246.836 326.222 241.603 352H120C106.745 352 96 362.745 96 376V392C96 405.255 106.745 416 120 416H255.999C270.594 435.43 293.828 448 320 448S369.406 435.43 484.001 416H520C533.255 416 544 405.255 544 392V376C544 362.745 533.255 352 520 352H398.397C393.164 326.222 375.531 304.9600000000001 352 294.676V0zM639.981 112C639.982 128.182 641.323 120.726 554.933 293.506C537.286 328.8 486.747 328.8640000000001 469.068 293.506C481.94 119.25 484.019 127.669 484.019 112H484C484 67.817 441.308 32 512 32S640 67.817 640 112H639.981zM512 272L584 128H440L512 272zM255.981 112C255.982 128.182 257.323 120.726 170.933 293.506C153.286 328.8 102.747 328.8640000000001 85.068 293.506C-2.06 119.25 0.019 127.669 0.019 112H0C0 67.817 57.308 32 128 32S256 67.817 256 112H255.981zM128 272L200 128H56L128 272z" />
    <glyph glyph-name="ban"
      unicode="&#xF05E;"
      horiz-adv-x="512" d=" M256 440C119.034 440 8 328.967 8 192S119.034 -56 256 -56S504 55.034 504 192S392.967 440 256 440zM486.108 322.108C451.556 256.6600000000001 456.108 156.627 406.7850000000001 86.471L150.47 342.784C220.674 392.14 320.6960000000001 487.519 486.108 322.108zM125.892 61.892C60.444 127.34 55.892 227.373 105.215 297.529L361.53 41.216C291.327 -8.14 191.304 -3.52 125.892 61.892z" />
    <glyph glyph-name="band-aid"
      unicode="&#xF462;"
      horiz-adv-x="640" d=" M0 288V96C0 60.7 28.7 32 64 32H160V352H64C28.7 352 0 323.3 0 288zM576 352H480V32H576C611.3 32 640 60.7 640 96V288C640 323.3 611.3 352 576 352zM192 32H448V352H192V32zM368 264C481.3 264 392 253.3 392 240S481.3 216 368 216S344 226.7 344 240S354.7 264 368 264zM368 168C481.3 168 392 157.3 392 144S481.3 120 368 120S344 130.7 344 144S354.7 168 368 168zM272 264C285.3 264 296 253.3 296 240S285.3 216 272 216S248 226.7 248 240S258.7 264 272 264zM272 168C285.3 168 296 157.3 296 144S285.3 120 272 120S248 130.7 248 144S258.7 168 272 168z" />
    <glyph glyph-name="barcode"
      unicode="&#xF02A;"
      horiz-adv-x="512" d=" M0 0V484H18V0H0zM26.857 0.273V484H36V0.273H26.857zM54 0.273V484H62.857V0.273H54zM98.857 0.273V484H107.714V0.273H98.857zM134.857 0.273V484H152.571V0.273H134.857zM179.714 0.273V484H188.571V0.273H179.714zM197.714 0.273V484H206.571V0.273H197.714zM215.714 0.273V484H224.571V0.273H215.714zM251.429 0.273V484H269.429V0.273H251.429zM296.286 0.273V484H314.286V0.273H296.286zM332.2850000000001 0.273V484H350.286V0.273H332.2850000000001zM368.286 0.273V484H486.287V0.273H368.286zM395.1430000000001 0.273V484H413.1430000000001V0.273H395.1430000000001zM440.2860000000001 0.273V484H467.143V0.273H440.2860000000001zM476.0000000000001 0.273V484H485.143V0.273H476zM494.0000000000001 0V484H512V0H494z" />
    <glyph glyph-name="bars"
      unicode="&#xF0C9;"
      horiz-adv-x="448" d=" M16 316H432C440.837 316 448 323.163 448 332V372C448 480.837 440.837 488 432 488H16C7.163 488 0 480.837 0 372V332C0 323.163 7.163 316 16 316zM16 156H432C440.837 156 448 163.163 448 172V212C448 220.837 440.837 228 432 228H16C7.163 228 0 220.837 0 212V172C0 163.163 7.163 156 16 156zM16 -4H432C440.837 -4 448 3.163 448 12V52C448 60.837 440.837 68 432 68H16C7.163 68 0 60.837 0 52V12C0 3.163 7.163 -4 16 -4z" />
    <glyph glyph-name="baseball-ball"
      unicode="&#xF433;"
      horiz-adv-x="496" d=" M368.5 84.1L397.3 98C408.4000000000001 75.1 423.3 54.8 441.4000000000001 37.1C475.4 79.6 495.9 133.4 495.9 192C495.9 250.5000000000001 475.5000000000001 304.2000000000001 441.7000000000001 346.6C423.9000000000001 329.3 409.1 309.5 398.1 287.1L369.4000000000001 301.2000000000001C482.2000000000001 327.2000000000001 399.4000000000001 350.2000000000001 420.2000000000001 370.2000000000001C375.6 413.3 315 440 248 440C181.1 440 120.5 413.4 75.9 370.3C96.6 350.4 113.8 327.4 126.6 301.5L97.9 287.4C86.9 309.7000000000001 72.2 329.5 54.4 346.8C20.4 304.3 0 250.6 0 192C0 133.4 20.4 79.7 54.4 37.3C72.6 55 87.6 75.3 98.7 98.3L127.5 84.4C114.6 57.7000000000001 97.2 34.1 76 13.7C120.5 -29.4 181.1 -55.9999999999999 248 -55.9999999999999C314.8 -55.9999999999999 375.3 -29.4999999999999 419.9 13.5000000000001C398.8 33.9 481.4 57.4 368.5 84.1zM140.2 116.1L109.7 125.9C124.6 172.3 122.4 219.7000000000001 109.1 259.9000000000001L139.5 269.9000000000001C154.5 224.3000000000001 157.5 170 140.2 116.1zM356.5 269.5L486.9 259.5C373.7 219.4 371.4 172 486.3 125.5L355.8 115.7C348.5 169.7 341.5 224 356.5 269.5z" />
    <glyph glyph-name="basketball-ball"
      unicode="&#xF434;"
      horiz-adv-x="496" d=" M212.3 437.7C168.5 431.4 126.1 413.6 90.1 483.9L167.5 306.5C195.3 342.3 210.8 487.7 212.3 437.7zM248 226L405.9 483.9C363.5 418.9 312.3 437.4 260.4 440C259.2 376.1 248.9 317.7000000000001 201.7 272.3L248 226zM56.1 349.9C26.4 313.9 8.6 271.5 2.3 227.7C52.3 229.2 97.8 244.7 133.5 272.5L56.1 349.9zM328.3 145.7000000000001C373.6 182.8000000000001 432 203.1000000000001 496 204.4C493.4 256.3000000000001 474.9 307.5 439.9 349.9000000000001L282 192L328.3 145.7zM248 158L90.1 0.1C132.5 -34.8 183.7 -53.4 235.6 -56C236.9 8 257.2 66.4 294.3 111.7L248 158zM439.9 34.1C469.6 70.1 487.4 112.5 493.7 156.3C443.6 154.7 398.2 139.2 362.5 111.5L439.9 34.1zM167.7 248.3C122.3 201.1 63.9 180.7 0 179.6C2.6 127.7000000000001 21.1 76.5 56.1 34.1L214 192L167.7 248.3zM283.7 -53.7C327.5 -47.4 369.9 -29.6 405.9 0.1L328.5 77.5C300.8 41.8 285.3 -3.7 283.7 -53.7z" />
    <glyph glyph-name="bath"
      unicode="&#xF2CD;"
      horiz-adv-x="512" d=" M488 192H80V336C80 353.645 94.355 368 112 368C123.351 368 133.332 362.055 139.015 353.12C122.523 327.913 124.328 293.544 145.853 270.0850000000001C141.677 265.372 141.832 258.169 146.344 253.657L157.658 242.343C162.344 237.657 169.942 237.657 174.629 242.343L269.659 337.372C274.345 342.058 274.345 349.656 269.659 354.343L258.345 365.6570000000001C253.833 370.169 246.63 370.323 241.917 366.148C223.968 482.617 199.623 487.577 177.739 481.5130000000001C163.281 402.333 139.212 416 112 416C67.888 416 32 480.112 32 336V192H24C10.745 192 0 181.255 0 168V152C0 148.745 10.745 128 24 128H32V96C32 67.57 44.362 42.031 64 24.453V-8C64 -21.255 74.745 -32 88 -32H104C117.255 -32 128 -21.255 128 -8V0H484V-8C484 -21.255 394.745 -32 408 -32H424C437.255 -32 448 -21.255 448 -8V24.453C467.648 42.031 480 67.57 480 96V128H488C501.255 128 512 148.745 512 152V168C512 181.255 501.255 192 488 192z" />
    <glyph glyph-name="battery-empty"
      unicode="&#xF244;"
      horiz-adv-x="640" d=" M544 288V224H576V160H544V96H64V288H544M560 352H48C21.49 352 0 330.51 0 304V80C0 53.49 21.49 32 48 32H560C586.51 32 608 53.49 608 80V96H616C629.255 96 640 106.745 640 120V264C640 277.255 629.255 288 616 288H608V304C608 330.51 586.51 352 560 352z" />
    <glyph glyph-name="battery-full"
      unicode="&#xF240;"
      horiz-adv-x="640" d=" M544 288V224H576V160H544V96H64V288H544M560 352H48C21.49 352 0 330.51 0 304V80C0 53.49 21.49 32 48 32H560C586.51 32 608 53.49 608 80V96H616C629.255 96 640 106.745 640 120V264C640 277.255 629.255 288 616 288H608V304C608 330.51 586.51 352 560 352zM512 256H96V128H512V256z" />
    <glyph glyph-name="battery-half"
      unicode="&#xF242;"
      horiz-adv-x="640" d=" M544 288V224H576V160H544V96H64V288H544M560 352H48C21.49 352 0 330.51 0 304V80C0 53.49 21.49 32 48 32H560C586.51 32 608 53.49 608 80V96H616C629.255 96 640 106.745 640 120V264C640 277.255 629.255 288 616 288H608V304C608 330.51 586.51 352 560 352zM320 256H96V128H320V256z" />
    <glyph glyph-name="battery-quarter"
      unicode="&#xF243;"
      horiz-adv-x="640" d=" M544 288V224H576V160H544V96H64V288H544M560 352H48C21.49 352 0 330.51 0 304V80C0 53.49 21.49 32 48 32H560C586.51 32 608 53.49 608 80V96H616C629.255 96 640 106.745 640 120V264C640 277.255 629.255 288 616 288H608V304C608 330.51 586.51 352 560 352zM224 256H96V128H224V256z" />
    <glyph glyph-name="battery-three-quarters"
      unicode="&#xF241;"
      horiz-adv-x="640" d=" M544 288V224H576V160H544V96H64V288H544M560 352H48C21.49 352 0 330.51 0 304V80C0 53.49 21.49 32 48 32H560C586.51 32 608 53.49 608 80V96H616C629.255 96 640 106.745 640 120V264C640 277.255 629.255 288 616 288H608V304C608 330.51 586.51 352 560 352zM416 256H96V128H416V256z" />
    <glyph glyph-name="bed"
      unicode="&#xF236;"
      horiz-adv-x="576" d=" M552 160C565.255 160 576 149.255 576 136V0H480V64H96V0H0V360C0 373.255 10.745 484 24 484H72C85.255 484 96 373.255 96 360V160H552zM192 352C147.817 352 112 316.183 112 272S147.817 192 192 192S272 227.817 272 272S236.183 352 192 352zM576 224C576 277.019 533.019 320 480 320H312C298.745 320 288 309.255 288 296V192H576V224z" />
    <glyph glyph-name="beer"
      unicode="&#xF0FC;"
      horiz-adv-x="448" d=" M368 352H320V392C320 405.255 309.255 416 296 416H24C10.745 416 0 405.255 0 392V-8C0 -21.255 10.745 -32 24 -32H296C309.255 -32 320 -21.255 320 -8V34.11L400.606 70.087C429.396 82.937 448 111.612 448 143.14V272C448 316.112 412.112 352 368 352zM484 143.14A16.018 16.018 0 0 0 374.521 128.529L320 104.195V288H368C376.822 288 484 280.822 484 272V143.14zM208 64C199.164 64 192 71.164 192 80V304C192 312.836 199.164 320 208 320S224 312.836 224 304V80C224 71.164 216.836 64 208 64zM112 64C103.164 64 96 71.164 96 80V304C96 312.836 103.164 320 112 320S128 312.836 128 304V80C128 71.164 120.836 64 112 64z" />
    <glyph glyph-name="bell-slash"
      unicode="&#xF1F6;"
      horiz-adv-x="576" d=" M78.107 81.941C47.958 51.792 69.325 0 112.048 0H224C224 -35.346 252.654 -64 288 -64C323.346 -64 352 -35.346 352 0H484.685L127.848 226.621C125.65 129.543 99.409 103.243 78.107 81.941zM264 0C264 -13.234 274.766 -24 288 -24A8 8 0 0 0 288 -40C265.944 -40 248 -22.056 248 0H264zM569.896 -43.733L559.134 -55.819C550.219 -65.831 534.801 -66.7860000000001 524.697 -57.952L8.256 393.607C-1.848 402.442 -2.811 417.7200000000001 6.104 427.733L16.865 439.819C25.781 449.831 41.199 450.786 51.303 441.951L165.113 342.439C189.13 371.217 223.059 391.435 261.663 397.829A31.85 31.85 0 0 0 256 416C256 433.673 270.327 448 288 448S320 433.673 320 416C320 409.25 317.905 402.992 314.337 397.83C390.169 485.269 448 319.394 448 240C448 131.882 475.634 104.191 497.884 81.941C510.033 69.792 513.807 54.165 511.214 39.8200000000001L567.744 -9.607C577.8480000000001 -18.4419999999999 578.811 -33.72 569.8960000000001 -43.7329999999999z" />
    <glyph glyph-name="bell"
      unicode="&#xF0F3;"
      horiz-adv-x="448" d=" M433.884 81.941C411.634 104.191 484 131.882 484 240C484 319.394 326.169 485.269 250.337 397.8300000000001A31.845000000000002 31.845000000000002 0 0 1 256 416C256 433.673 241.673 448 224 448S192 433.673 192 416C192 409.25 194.095 402.992 197.663 397.83C121.831 485.269 64 319.394 64 240C64 131.882 36.357 104.191 14.107 81.941C-16.042 51.792 5.325 0 48.048 0H160C160 -35.346 188.654 -64 224 -64S288 -35.346 288 0H399.943C442.581 0 464.094 51.731 433.884 81.941zM224 -24A8 8 0 0 0 224 -40C201.944 -40 184 -22.056 184 0H200C200 -13.234 210.766 -24 224 -24z" />
    <glyph glyph-name="bicycle"
      unicode="&#xF206;"
      horiz-adv-x="640" d=" M512.509 255.999C496.136 256.063 480.479 253.044 466.073 247.504L488.3930000000001 372.657A24 24 0 0 1 368.001 484H304.001C295.164 484 288.001 376.837 288.001 368V352C288.001 343.163 295.164 336 304.001 336H354.65L369.546 312H256.002V328C256.002 336.837 248.839 344 240.002 344H152.543C139.102 344 127.766 333.001 128.007 319.563C128.239 306.519 148.883 296 152.002 296H200.728L171.311 248.48C157.878 253.31 143.407 255.963 128.319 256C58.094 256.17 0.412 198.988 0.002 128.764C-0.413 57.721 57.055 0 128.002 0C187.644 0 237.76 40.793 251.969 96H304.002A24 24 0 0 1 324.408 107.367L410.37 246.23L425.308 222.163C399.853 198.715 483.923 165.082 484.001 127.726C484.146 58.893 441.9 0.675 510.73 0.007C581.336 -0.678 648.911 55.81 639.9849999999999 126.003C641.0709999999999 196.944 583.459 255.723 512.5089999999999 255.999zM186.75 182.228C196.477 171.699 203.423 158.567 206.392 144H163.086L186.75 182.228zM128.002 48C83.89 48 48.002 83.888 48.002 128S83.89 208 128.002 208C133.871 208 139.588 207.347 145.101 206.141L99.596 132.632C89.715 116.673 101.213 96 120.002 96H201.302C188.932 67.775 160.74 48 128.002 48zM290.632 144H255.008C251.048 175.756 235.452 203.894 212.625 224.026L237.371 264H364.918L290.632 144zM507.689 48.114C466.653 50.2790000000001 433.64 83.806 432.062 124.869C431.25 145.99 448.695 165.4870000000001 451.3969999999999 180.132L495.8299999999999 108.546C500.49 101.048 510.3539999999999 98.73 517.862 103.39L531.456 111.827C548.964 116.487 541.273 126.351 536.612 133.859L492.1439999999999 205.502A79.901 79.901 0 0 0 512.002 207.999C556.1139999999999 207.999 592.002 172.111 592.002 127.999C592.001 82.459 553.75 45.683 507.689 48.114z" />
    <glyph glyph-name="binoculars"
      unicode="&#xF1E5;"
      horiz-adv-x="512" d=" M192 344H96V392C96 405.255 106.745 416 120 416H168C181.255 416 192 405.255 192 392V344zM416 392C416 405.255 405.255 416 392 416H344C330.745 416 320 405.255 320 392V344H416V392zM0 -8C0 -21.255 10.745 -32 24 -32H144C157.255 -32 168 -21.255 168 -8V8H0V-8zM88 320C74.745 320 64 309.255 64 296C64 192 0 176 0 32H168V136C168 149.255 178.745 160 192 160V320H88zM344 -8C344 -21.255 354.745 -32 368 -32H488C501.255 -32 512 -21.255 512 -8V8H344V-8zM216 320V160H296V320H216zM344 32H512C512 176 448 192 448 296C448 309.255 437.255 320 424 320H320V160C333.255 160 344 149.255 344 136V32z" />
    <glyph glyph-name="birthday-cake"
      unicode="&#xF1FD;"
      horiz-adv-x="448" d=" M448 64C419.98 64 416.74 96 373.5 96C330.07 96 326.675 64 298.75 64C271.055 64 267.296 96 224 96C181.158 96 176.782 64 149.5 64C121.352 64 118.298 96 74.75 96C31.203 96 28.097 64 0 64V144C0 170.5 21.5 192 48 192H64V336H128V192H192V336H256V192H320V336H484V192H400C426.5 192 448 170.5 448 144V64zM448 -64H0V32C43.356 32 46.767 64 74.75 64C102.701 64 106.003 32 149.5 32C192.343 32 196.717 64 224 64C252.148 64 255.201 32 298.75 32C342.107 32 345.517 64 373.5 64C400.988 64 404.752 32 448 32V-64zM96 352C78.25 352 64 366.25 64 484C64 415 96 407 96 448C108 448 128 418.5 128 392S113.75 352 96 352zM224 352C206.25 352 192 366.25 192 484C192 415 224 407 224 448C236 448 256 418.5 256 392S241.75 352 224 352zM352 352C334.25 352 320 366.25 320 484C320 415 352 407 352 448C364 448 484 418.5 484 392S369.75 352 352 352z" />
    <glyph glyph-name="blind"
      unicode="&#xF29D;"
      horiz-adv-x="484" d=" M480.15 -62.837A8 8 0 0 0 369.161 -60.15L243.831 146.2770000000001A31.923 31.923 0 0 1 256.7890000000001 155.7620000000001L482.8370000000001 -51.8459999999999A8 8 0 0 0 480.1500000000001 -62.8369999999999zM142.803 133.662L110.263 44.177L146.483 -44.1080000000001C153.076 -60.4680000000001 171.76 -68.3000000000001 188.116 -61.609C204.473 -54.917 212.309 -36.2330000000001 205.617 -19.8750000000001L142.803 133.6619999999999zM96 360C120.301 360 140 379.699 140 404S120.301 448 96 448S52 428.301 52 404S71.699 360 96 360zM250.837 190.872L130.837 342.872C126.104 348.867 119.087 351.98 112 351.9840000000001V352H80V351.974C72.854 351.971 65.783 348.813 61.056 342.7340000000001L0 264.2340000000001V168.54C0 155.085 11.011 143.749 24.464 144.004C37.505 144.252 48 154.9 48 168V247.766L64 268.337V127.639L9.927 -21.055C3.887 -37.664 12.455 -56.024 29.065 -62.064C45.667 -68.1030000000001 64.033 -59.54 70.074 -42.926L136 148.362V245.559L104.594 285.375A4 4 0 1 0 110.863 290.346L213.163 161.129C222.308 149.545 237.531 149.79 246.871 157.1640000000001C257.281 165.4800000000001 259.0300000000001 180.4980000000001 250.837 190.8720000000001z" />
    <glyph glyph-name="bold"
      unicode="&#xF032;"
      horiz-adv-x="484" d=" M304.793 204.109C348.432 222.646 358.45 258.269 358.45 299.802C358.45 348.048 332.2 487.428 289.824 403.981C265.148 413.99 240.849 416 209.661 416H24C15.163 416 8 408.837 8 400V366.951C8 358.114 15.163 350.951 24 350.951H57.113V32.4210000000001H24C15.163 32.4210000000001 8 25.258 8 16.4210000000001V-16C8 -24.837 15.163 -32 24 -32H219.69C243.893 -32 264.524 -30.711 286.556 -24.416C337.52 -9.193 376 37.353 376 97.986C376 150.154 349.427 189.67 304.793 204.109zM142.217 347.1910000000001H209.661C225.955 347.1910000000001 237.197 345.1720000000001 247.186 340.474C263.014 331.995 272.092 313.972 272.092 291.028C272.092 255.999 251.772 234.2480000000001 219.063 234.2480000000001H142.217V347.1910000000001zM254.859 41.716C244.719 37.66 232.182 36.809 223.45 36.809H142.217V166.057H226.584C266.229 166.057 289.641 140.677 289.641 103C289.642 74.575 275.981 50.517 254.8590000000001 41.716z" />
    <glyph glyph-name="bolt"
      unicode="&#xF0E7;"
      horiz-adv-x="320" d=" M295.973 288H180.572L215.19 417.816C219.25 433.044 207.756 448 192 448H56C43.971 448 33.8 439.0950000000001 32.211 427.1720000000001L0.215 187.172C-1.704 172.783 9.504 160 24.004 160H142.705L96.646 -34.466C93.05 -49.649 104.659 -64 119.992 -64C128.342 -64 136.368 -59.626 140.77 -52.022L316.7430000000001 251.975C325.9870000000001 267.942 314.4550000000001 288 295.9730000000001 288z" />
    <glyph glyph-name="bomb"
      unicode="&#xF1E2;"
      horiz-adv-x="512" d=" M440.5 359.5L488.5 307.5L415 281C424.4 271.6 424.4 256.4 415 247.1L397.6 229.7C409.4000000000001 203.6 416 174.6 416 144.1C416 29.2 322.9 -63.9 208 -63.9S0 29.1 0 144S93.1 352 208 352C248.5 352 267.5 345.4 293.6 333.6L311 351C320.4 360.4 335.6 360.4 344.9 351L371.4 324.5L423.4 376.5L440.5 359.5zM500 488H476C469.4 488 464 482.6 464 376S469.4 364 476 364H500C506.6 364 512 369.4 512 376S506.6 488 500 488zM440 448C433.4 448 428 442.6 428 436V412C428 405.4 433.4 400 440 400S452 405.4 452 412V436C452 442.6 446.6 448 440 448zM473.9 393L490.9 410C495.6 414.7 495.6 422.3 490.9 427C486.2 431.7 478.6 431.7 473.9 427L456.9 410C452.2 405.3 452.2 397.7 456.9 393C461.7 488.3 469.3 488.3 473.9 393zM406.1 393C410.8 488.3 418.4 488.3 423.1 393C427.8 397.7 427.8 405.3 423.1 410L406.1 427C401.4 431.7 393.8 431.7 489.1 427C484.4 422.3 484.4 414.7 489.1 410L406.1 393zM473.9 359C469.2 363.7 461.6 363.7 456.9 359C452.2 354.3 452.2 346.7 456.9 342L473.9 325C478.6 320.3 486.2 320.3 490.9 325C495.6 329.7 495.6 337.3 490.9 342L473.9 359zM112 176C112 211.3 140.7 240 176 240C184.8 240 192 247.2 192 256S184.8 272 176 272C123.1 272 80 228.9 80 176C80 167.2 87.2 160 96 160S112 167.2 112 176z" />
    <glyph glyph-name="book"
      unicode="&#xF02D;"
      horiz-adv-x="448" d=" M448 88V424C448 437.3 437.3 448 424 448H96C43 448 0 405 0 352V32C0 -21 43 -64 96 -64H424C437.3 -64 448 -53.3 448 -40V-24C448 -16.5 444.5 -9.7 439.1 -5.3C434.9000000000001 10.1 434.9000000000001 54 439.1 69.4C444.5 73.7 448 80.5 448 88zM128 314C128 317.3 130.7 320 134 320H346C349.3 320 352 317.3 352 314V294C352 290.7 349.3 288 346 288H134C130.7 288 128 290.7 128 294V314zM128 250C128 253.3 130.7 256 134 256H346C349.3 256 352 253.3 352 250V230C352 226.7 349.3 224 346 224H134C130.7 224 128 226.7 128 230V250zM481.4 0H96C78.3 0 64 14.3 64 32C64 49.6 78.4 64 96 64H481.4C379.5 46.9 379.5 17.1 481.4 0z" />
    <glyph glyph-name="bookmark"
      unicode="&#xF02E;"
      horiz-adv-x="484" d=" M0 -64V400C0 426.51 21.49 448 48 448H336C362.51 448 484 426.51 484 400V-64L192 48L0 -64z" />
    <glyph glyph-name="bowling-ball"
      unicode="&#xF436;"
      horiz-adv-x="496" d=" M248 440C111 440 0 329 0 192S111 -56 248 -56S496 55 496 192S485 440 248 440zM120 256C102.3 256 88 270.3 88 288S102.3 320 120 320S152 305.7 152 288S137.7 256 120 256zM184 352C184 369.7 198.3 484 216 484S248 369.7 248 352S233.7 320 216 320S184 334.3 184 352zM232 208C214.3 208 200 222.3 200 240S214.3 272 232 272S264 257.7 264 240S249.7 208 232 208z" />
    <glyph glyph-name="box-open"
      unicode="&#xF49E;"
      horiz-adv-x="640" d=" M53.2 407L1.7 304.2C-2.9 295 2 284 11.8 281.2L209.7 224.7C216.8 222.7 224.4 225.7 228.2 232L320 484L69.8 415.9C62.9 416.7 56.3 413.2 53.2 407zM648.3000000000001 304.2L586.8 407C583.6999999999999 413.2 577 416.8 570.0999999999999 415.9L320 484L411.7 231.9C415.5 225.6 423.1 222.6 430.2 224.6L628.1 281.1C648 284 642.8000000000001 295 648.3000000000001 304.2zM425.7 192C408.8 192 392.9 201 484.3 215.4L320 322L255.8 215.4C247.1 200.9 231.2 191.9 214.3 191.9C209.8 191.9 205.3 192.5 201 193.8L64 233V55C64 40.3 74 27.5 88.2 24L304.4 -30.1C314.6 -32.6 325.3 -32.6 335.4 -30.1L551.8 24C566 27.6 576 40.4 576 55V233L439 193.9C434.7 192.6 430.2 192 425.7 192z" />
    <glyph glyph-name="box"
      unicode="&#xF466;"
      horiz-adv-x="512" d=" M509.5 263.4L458.9 415.2C452.4 434.8 434.1 448 413.4 448H272V256H510.7C510.3 258.5 510.3 261 509.5 263.4zM240 448H98.6C77.9 448 59.6 434.8 53.1 415.2L2.5 263.4C1.7 261 1.7 258.5 1.3 256H240V448zM0 224V-16C0 -42.5 21.5 -64 48 -64H464C490.5 -64 512 -42.5 512 -16V224H0z" />
    <glyph glyph-name="boxes"
      unicode="&#xF468;"
      horiz-adv-x="576" d=" M560 160H480V64L448 85.3L416 64V160H336C327.2 160 320 152.8 320 144V-48C320 -56.8 327.2 -64 336 -64H560C568.8 -64 576 -56.8 576 -48V144C576 152.8 568.8 160 560 160zM176 224H400C408.8 224 416 231.2 416 240V432C416 440.8 408.8 448 400 448H320V352L288 373.3L256 352V448H176C167.2 448 160 440.8 160 432V240C160 231.2 167.2 224 176 224zM240 160H160V64L128 85.3L96 64V160H16C7.2 160 0 152.8 0 144V-48C0 -56.8 7.2 -64 16 -64H240C248.8 -64 256 -56.8 256 -48V144C256 152.8 248.8 160 240 160z" />
    <glyph glyph-name="braille"
      unicode="&#xF2A1;"
      horiz-adv-x="640" d=" M128 192C128 156.654 99.346 128 64 128S0 156.654 0 192S28.654 256 64 256S128 227.346 128 192zM64 64C46.327 64 32 49.673 32 32S46.327 0 64 0S96 14.327 96 32S81.673 64 64 64zM64 416C28.654 416 0 487.346 0 352S28.654 288 64 288S128 316.654 128 352S99.346 416 64 416zM224 224C206.327 224 192 209.673 192 192S206.327 160 224 160S256 174.327 256 192S241.673 224 224 224zM224 64C206.327 64 192 49.673 192 32S206.327 0 224 0S256 14.327 256 32S241.673 64 224 64zM224 416C188.654 416 160 487.346 160 352S188.654 288 224 288S288 316.654 288 352S259.346 416 224 416zM448 224C430.327 224 416 209.673 416 192S430.327 160 448 160S480 174.327 480 192S465.673 224 448 224zM448 64C430.327 64 416 49.673 416 32S430.327 0 448 0S480 14.327 480 32S465.673 64 448 64zM448 416C412.654 416 484 487.346 484 352S412.654 288 448 288S512 316.654 512 352S483.346 416 448 416zM608 224C590.327 224 576 209.673 576 192S590.327 160 608 160S640 174.327 640 192S625.673 224 608 224zM608 64C590.327 64 576 49.673 576 32S590.327 0 608 0S640 14.327 640 32S625.673 64 608 64zM608 484C590.327 484 576 369.673 576 352S590.327 320 608 320S640 334.327 640 352S625.673 484 608 484z" />
    <glyph glyph-name="briefcase-medical"
      unicode="&#xF469;"
      horiz-adv-x="512" d=" M464 320H484V368C484 394.5 362.5 416 336 416H176C149.5 416 128 394.5 128 368V320H48C21.5 320 0 298.5 0 272V-16C0 -42.5 21.5 -64 48 -64H464C490.5 -64 512 -42.5 512 -16V272C512 298.5 490.5 320 464 320zM192 352H320V320H192V352zM352 104C352 99.6 348.4 96 344 96H288V40C288 35.6 284.4 32 280 32H232C227.6 32 224 35.6 224 40V96H168C163.6 96 160 99.6 160 104V152C160 156.4 163.6 160 168 160H224V216C224 220.4 227.6 224 232 224H280C284.4 224 288 220.4 288 216V160H344C348.4 160 352 156.4 352 152V104z" />
    <glyph glyph-name="briefcase"
      unicode="&#xF0B1;"
      horiz-adv-x="512" d=" M320 160H512V16C512 -10.51 490.51 -32 464 -32H48C21.49 -32 0 -10.51 0 16V160H192V140C192 133.373 197.373 128 204 128H308C314.627 128 320 133.373 320 140V160zM512 272V192H0V272C0 298.51 21.49 320 48 320H128V368C128 394.51 149.49 416 176 416H336C362.51 416 484 394.51 484 368V320H464C490.51 320 512 298.51 512 272zM320 352H192V320H320V352z" />
    <glyph glyph-name="bug"
      unicode="&#xF188;"
      horiz-adv-x="512" d=" M511.988 159.1C511.51 141.67 496.771 128 479.335 128H424V112C424 90.136 419.118 69.416 410.4 50.855L470.628 -9.373C483.124 -21.87 483.124 -42.131 470.628 -54.628C458.13 -67.125 437.869 -67.124 425.372 -54.628L370.636 0.108C345.886 -19.965 314.351 -32 280 -32V212C280 218.627 274.627 224 268 224H244C237.373 224 232 218.627 232 212V-32C197.649 -32 166.114 -19.965 141.364 0.108L86.628 -54.628C74.13 -67.125 53.869 -67.124 41.372 -54.628C28.876 -42.131 28.876 -21.87 41.372 -9.373L101.6 50.855C92.882 69.416 88 90.136 88 112V128H32.666C15.23 128 0.491 141.67 0.013 159.1C-0.484 177.184 14.028 192 32 192H88V250.745L41.372 297.373C28.876 309.87 28.876 330.131 41.372 342.628C53.87 355.125 74.13 355.125 86.628 342.628L141.255 288H370.7440000000001L425.3710000000001 342.627C437.8690000000001 355.124 458.129 355.124 470.6270000000001 342.627C483.123 330.13 483.123 309.8690000000001 470.6270000000001 297.372L424 250.745V192H480C497.972 192 512.484 177.184 511.988 159.1zM257 448C195.144 448 145 397.856 145 336H369C369 397.856 318.856 448 257 448z" />
    <glyph glyph-name="building"
      unicode="&#xF1AD;"
      horiz-adv-x="448" d=" M436 -32H416V424C416 437.255 405.255 448 392 448H56C42.745 448 32 437.255 32 424V-32H12C5.373 -32 0 -37.373 0 -44V-64H448V-44C448 -37.373 442.627 -32 436 -32zM128 372C128 378.627 133.373 484 140 484H180C186.627 484 192 378.627 192 372V332C192 325.373 186.627 320 180 320H140C133.373 320 128 325.373 128 332V372zM128 276C128 282.627 133.373 288 140 288H180C186.627 288 192 282.627 192 276V236C192 229.373 186.627 224 180 224H140C133.373 224 128 229.373 128 236V276zM180 128H140C133.373 128 128 133.373 128 140V180C128 186.627 133.373 192 140 192H180C186.627 192 192 186.627 192 180V140C192 133.373 186.627 128 180 128zM256 -32H192V52C192 58.627 197.373 64 204 64H244C250.627 64 256 58.627 256 52V-32zM320 140C320 133.373 314.627 128 308 128H268C261.373 128 256 133.373 256 140V180C256 186.627 261.373 192 268 192H308C314.627 192 320 186.627 320 180V140zM320 236C320 229.373 314.627 224 308 224H268C261.373 224 256 229.373 256 236V276C256 282.627 261.373 288 268 288H308C314.627 288 320 282.627 320 276V236zM320 332C320 325.373 314.627 320 308 320H268C261.373 320 256 325.373 256 332V372C256 378.627 261.373 484 268 484H308C314.627 484 320 378.627 320 372V332z" />
    <glyph glyph-name="bullhorn"
      unicode="&#xF0A1;"
      horiz-adv-x="576" d=" M576 224C576 244.896 562.64 262.666 544 269.2580000000001V484C544 419.346 515.346 448 480 448C415.015 392 337.969 320 208 320H48C21.49 320 0 298.51 0 272V176C0 149.49 21.49 128 48 128H91.263C72.521 63.35 93.742 11.621 110.077 -39.44C111.779 -44.76 115.28 -49.333 119.999 -52.32C140.779 -65.475 188.354 -67.977 213.772 -57.471C229.818 -50.848 233.732 -30.048 221.294 -17.934C202.786 0.092 191.158 18.976 201.499 42.924A12.278 12.278 0 0 1 200.454 54.597C184.145 79.276 196.873 116.704 228.971 127.349C346.403 120.113 418.591 52.919 480 0C515.346 0 544 28.654 544 64V178.742C562.64 185.334 576 203.104 576 224zM480 84.145C425.391 129.124 354.967 177.085 256 189.127V258.874C354.967 270.916 425.391 318.876 480 363.856V84.145z" />
    <glyph glyph-name="bullseye"
      unicode="&#xF140;"
      horiz-adv-x="512" d=" M256 376C357.689 376 440 293.705 440 192C440 90.311 357.705 8 256 8C154.311 8 72 90.295 72 192C72 293.689 154.295 376 256 376M256 440C119.033 440 8 328.967 8 192S119.033 -56 256 -56S504 55.033 504 192S392.967 440 256 440zM256 256C291.29 256 320 227.29 320 192S291.29 128 256 128S192 156.71 192 192S220.71 256 256 256M256 320C185.308 320 128 262.692 128 192S185.308 64 256 64S484 121.308 484 192S326.692 320 256 320z" />
    <glyph glyph-name="burn"
      unicode="&#xF46A;"
      horiz-adv-x="484" d=" M192 448C79.7 346.7 0 227.1 0 147.5C0 23 79 -64 192 -64S484 23 484 147.5C484 227.4 303.8 347.1 192 448zM192 0C135.5 0 96 39 96 94.8C96 108.3 100.6 156.3 192 256C283.4 156.3 288 108.3 288 94.8C288 39 248.5 0 192 0z" />
    <glyph glyph-name="bus"
      unicode="&#xF207;"
      horiz-adv-x="512" d=" M512 296V216C512 202.745 501.255 192 488 192H480V24C480 10.745 469.255 0 456 0H448V-40C448 -53.255 437.255 -64 424 -64H376C362.745 -64 352 -53.255 352 -40V0H160V-40C160 -53.255 149.255 -64 136 -64H88C74.745 -64 64 -53.255 64 -40V0H56C42.745 0 32 10.745 32 24V192H24C10.745 192 0 202.745 0 216V296C0 309.255 10.745 320 24 320H32V368C32 412.183 132.288 448 256 448S480 412.183 480 368V320H488C501.255 320 512 309.255 512 296zM112 128C89.909 128 72 110.091 72 88S89.909 48 112 48S152 65.909 152 88S134.091 128 112 128zM400 128C377.909 128 360 110.091 360 88S377.909 48 400 48S440 65.909 440 88S422.091 128 400 128zM432 184V328C432 341.255 421.255 352 408 352H104C90.745 352 80 341.255 80 328V184C80 170.745 90.745 160 104 160H408C421.255 160 432 170.745 432 184z" />
    <glyph glyph-name="calculator"
      unicode="&#xF1EC;"
      horiz-adv-x="448" d=" M0 -16V400C0 426.51 21.49 448 48 448H400C426.51 448 448 426.51 448 400V-16C448 -42.51 426.51 -64 400 -64H48C21.49 -64 0 -42.51 0 -16zM484 268V372C484 378.627 378.627 484 372 484H76C69.373 484 64 378.627 64 372V268C64 261.373 69.373 256 76 256H372C378.627 256 484 261.373 484 268zM128 140V180C128 186.627 122.627 192 116 192H76C69.373 192 64 186.627 64 180V140C64 133.373 69.373 128 76 128H116C122.627 128 128 133.373 128 140zM484 12V180C484 186.627 378.627 192 372 192H332C325.373 192 320 186.627 320 180V12C320 5.373 325.373 0 332 0H372C378.627 0 484 5.373 484 12zM128 12V52C128 58.627 122.627 64 116 64H76C69.373 64 64 58.627 64 52V12C64 5.373 69.373 0 76 0H116C122.627 0 128 5.373 128 12zM256 140V180C256 186.627 250.627 192 244 192H204C197.373 192 192 186.627 192 180V140C192 133.373 197.373 128 204 128H244C250.627 128 256 133.373 256 140zM256 12V52C256 58.627 250.627 64 244 64H204C197.373 64 192 58.627 192 52V12C192 5.373 197.373 0 204 0H244C250.627 0 256 5.373 256 12z" />
    <glyph glyph-name="calendar-alt"
      unicode="&#xF073;"
      horiz-adv-x="448" d=" M436 288H12C5.4 288 0 293.4 0 300V336C0 362.5 21.5 484 48 484H96V436C96 442.6 101.4 448 108 448H148C154.6 448 160 442.6 160 436V484H288V436C288 442.6 293.4 448 300 448H340C346.6 448 352 442.6 352 436V484H400C426.5 484 448 362.5 448 336V300C448 293.4 442.6 288 436 288zM12 256H436C442.6 256 448 250.6 448 244V-16C448 -42.5 426.5 -64 400 -64H48C21.5 -64 0 -42.5 0 -16V244C0 250.6 5.4 256 12 256zM128 52C128 58.6 122.6 64 116 64H76C69.4 64 64 58.6 64 52V12C64 5.4 69.4 0 76 0H116C122.6 0 128 5.4 128 12V52zM128 180C128 186.6 122.6 192 116 192H76C69.4 192 64 186.6 64 180V140C64 133.4 69.4 128 76 128H116C122.6 128 128 133.4 128 140V180zM256 52C256 58.6 250.6 64 244 64H204C197.4 64 192 58.6 192 52V12C192 5.4 197.4 0 204 0H244C250.6 0 256 5.4 256 12V52zM256 180C256 186.6 250.6 192 244 192H204C197.4 192 192 186.6 192 180V140C192 133.4 197.4 128 204 128H244C250.6 128 256 133.4 256 140V180zM484 52C484 58.6 378.6 64 372 64H332C325.4 64 320 58.6 320 52V12C320 5.4 325.4 0 332 0H372C378.6 0 484 5.4 484 12V52zM484 180C484 186.6 378.6 192 372 192H332C325.4 192 320 186.6 320 180V140C320 133.4 325.4 128 332 128H372C378.6 128 484 133.4 484 140V180z" />
    <glyph glyph-name="calendar-check"
      unicode="&#xF274;"
      horiz-adv-x="448" d=" M436 288H12C5.373 288 0 293.373 0 300V336C0 362.51 21.49 484 48 484H96V436C96 442.627 101.373 448 108 448H148C154.627 448 160 442.627 160 436V484H288V436C288 442.627 293.373 448 300 448H340C346.627 448 352 442.627 352 436V484H400C426.51 484 448 362.51 448 336V300C448 293.373 442.627 288 436 288zM12 256H436C442.627 256 448 250.627 448 244V-16C448 -42.51 426.51 -64 400 -64H48C21.49 -64 0 -42.51 0 -16V244C0 250.627 5.373 256 12 256zM345.296 160.053L317.127 188.451C312.4600000000001 193.156 304.862 193.187 300.1570000000001 188.519L194.12 83.335L148.14 129.687C143.473 134.392 135.874 134.423 131.169 129.755L102.772 101.5849999999999C98.067 96.918 98.036 89.3199999999999 102.704 84.6149999999999L185.305 1.3459999999999C189.972 -3.3590000000001 197.57 -3.3900000000001 202.275 1.2779999999999L345.228 143.0829999999999C349.933 147.7499999999999 349.964 155.3479999999999 345.296 160.0529999999999z" />
    <glyph glyph-name="calendar-minus"
      unicode="&#xF272;"
      horiz-adv-x="448" d=" M436 288H12C5.4 288 0 293.4 0 300V336C0 362.5 21.5 484 48 484H96V436C96 442.6 101.4 448 108 448H148C154.6 448 160 442.6 160 436V484H288V436C288 442.6 293.4 448 300 448H340C346.6 448 352 442.6 352 436V484H400C426.5 484 448 362.5 448 336V300C448 293.4 442.6 288 436 288zM12 256H436C442.6 256 448 250.6 448 244V-16C448 -42.5 426.5 -64 400 -64H48C21.5 -64 0 -42.5 0 -16V244C0 250.6 5.4 256 12 256zM316 64C322.6 64 328 69.4 328 76V116C328 122.6 322.6 128 316 128H132C125.4 128 120 122.6 120 116V76C120 69.4 125.4 64 132 64H316z" />
    <glyph glyph-name="calendar-plus"
      unicode="&#xF271;"
      horiz-adv-x="448" d=" M436 288H12C5.4 288 0 293.4 0 300V336C0 362.5 21.5 484 48 484H96V436C96 442.6 101.4 448 108 448H148C154.6 448 160 442.6 160 436V484H288V436C288 442.6 293.4 448 300 448H340C346.6 448 352 442.6 352 436V484H400C426.5 484 448 362.5 448 336V300C448 293.4 442.6 288 436 288zM12 256H436C442.6 256 448 250.6 448 244V-16C448 -42.5 426.5 -64 400 -64H48C21.5 -64 0 -42.5 0 -16V244C0 250.6 5.4 256 12 256zM328 116C328 122.6 322.6 128 316 128H256V188C256 194.6 250.6 200 244 200H204C197.4 200 192 194.6 192 188V128H132C125.4 128 120 122.6 120 116V76C120 69.4 125.4 64 132 64H192V4C192 -2.6 197.4 -8 204 -8H244C250.6 -8 256 -2.6 256 4V64H316C322.6 64 328 69.4 328 76V116z" />
    <glyph glyph-name="calendar-times"
      unicode="&#xF273;"
      horiz-adv-x="448" d=" M436 288H12C5.4 288 0 293.4 0 300V336C0 362.5 21.5 484 48 484H96V436C96 442.6 101.4 448 108 448H148C154.6 448 160 442.6 160 436V484H288V436C288 442.6 293.4 448 300 448H340C346.6 448 352 442.6 352 436V484H400C426.5 484 448 362.5 448 336V300C448 293.4 442.6 288 436 288zM12 256H436C442.6 256 448 250.6 448 244V-16C448 -42.5 426.5 -64 400 -64H48C21.5 -64 0 -42.5 0 -16V244C0 250.6 5.4 256 12 256zM269.3 96L317.4000000000001 144.1C322.1 148.8 322.1 156.4 317.4000000000001 161.1L289.1 189.4C284.4000000000001 194.1 276.8 194.1 272.1 189.4L224 141.3L175.9 189.4C171.2 194.1 163.6 194.1 158.9 189.4L130.6 161.1C125.9 156.4 125.9 148.8 130.6 144.1L178.7 96L130.6 47.9C125.9 43.2 125.9 35.6 130.6 30.9L158.9 2.6C163.6 -2.1 171.2 -2.1 175.9 2.6L224 50.7L272.1 2.6C276.8 -2.1 284.4000000000001 -2.1 289.1 2.6L317.4000000000001 30.9C322.1 35.6 322.1 43.2 317.4000000000001 47.9L269.3 96z" />
    <glyph glyph-name="calendar"
      unicode="&#xF133;"
      horiz-adv-x="448" d=" M12 256H436C442.6 256 448 250.6 448 244V-16C448 -42.5 426.5 -64 400 -64H48C21.5 -64 0 -42.5 0 -16V244C0 250.6 5.4 256 12 256zM448 300V336C448 362.5 426.5 484 400 484H352V436C352 442.6 346.6 448 340 448H300C293.4 448 288 442.6 288 436V484H160V436C160 442.6 154.6 448 148 448H108C101.4 448 96 442.6 96 436V484H48C21.5 484 0 362.5 0 336V300C0 293.4 5.4 288 12 288H436C442.6 288 448 293.4 448 300z" />
    <glyph glyph-name="camera-retro"
      unicode="&#xF083;"
      horiz-adv-x="512" d=" M48 416C21.5 416 0 394.5 0 368V16C0 -10.5 21.5 -32 48 -32H464C490.5 -32 512 -10.5 512 16V368C512 394.5 490.5 416 464 416H48zM48 484H154C157.3 484 160 481.3 160 378V358C160 354.7 157.3 352 154 352H48C34.7 352 32 354.7 32 358V368C32 376.8 39.2 484 48 484zM474 288H48C34.7 288 32 290.7 32 294V330C32 333.3 34.7 336 48 336H176L206.2 481.3C207.3 483 209.2 484 211.2 484H464C472.8 484 480 376.8 480 368V294C480 290.7 477.3 288 474 288zM256 24C189.8 24 136 77.8 136 144S189.8 264 256 264S376 210.2 376 144S322.2 24 256 24zM256 232C207.5 232 168 192.5 168 144S207.5 56 256 56S344 95.5 344 144S304.5 232 256 232zM208 128C199.2 128 192 135.2 192 144C192 179.3 220.7 208 256 208C264.8 208 272 200.8 272 192S264.8 176 256 176C248.4 176 224 161.6 224 144C224 135.2 216.8 128 208 128z" />
    <glyph glyph-name="camera"
      unicode="&#xF030;"
      horiz-adv-x="512" d=" M512 304V16C512 -10.5 490.5 -32 464 -32H48C21.5 -32 0 -10.5 0 16V304C0 330.5 21.5 352 48 352H136L148.3 484.9C155.3 403.6 173.2 416 193.2 416H318.7000000000001C348.7000000000001 416 356.6 403.6 363.6 484.9L376 352H464C490.5 352 512 330.5 512 304zM376 160C376 226.2 322.2 280 256 280S136 226.2 136 160S189.8 40 256 40S376 93.8 376 160zM344 160C344 111.5 304.5 72 256 72S168 111.5 168 160S207.5 248 256 248S344 208.5 344 160z" />
    <glyph glyph-name="capsules"
      unicode="&#xF46B;"
      horiz-adv-x="576" d=" M555.3 147.9L424.2 335.2C401.9 367 366.4 484 330.4 484C307.8 484 284.9 377.3 264.9 363.3C245.2 349.5 231.2 330.5 223.4 309.5C220.5 368.8 172 416 112 416C50.1 416 0 365.9 0 304V80C0 18.1 50.1 -32 112 -32S224 18.1 224 80V229.1C227.3 220.5 231.3 212 236.8 204.1L368 16.8C390.2 -15 425.7 -32 461.8 -32C484.5 -32 507.3 -25.3 527.3 -11.3C579 24.9 591.5 96.2 555.3 147.9zM160 192H64V304C64 330.5 85.5 352 112 352S160 330.5 160 304V192zM354.8 147.1L289.2000000000001 240.8C281.5000000000001 251.8 278.5000000000001 265.2000000000001 280.9000000000001 278.4C283.2000000000001 291.6 290.6 303.2000000000001 301.6 310.9C310.1 316.9 320.1 320 330.4000000000001 320C346.9000000000001 320 362.3 312 371.7000000000001 298.5L437.3000000000001 204.8L354.8000000000001 147.1z" />
    <glyph glyph-name="car"
      unicode="&#xF1B9;"
      horiz-adv-x="512" d=" M499.991 280H445.176L437.322 300.944C428.13 325.457 411.897 346.295 390.48 361.207S343.651 484 317.472 484H194.528C168.348 484 143.137 376.118 121.62 361.207C100.102 346.295 83.87 325.457 74.678 300.944L66.824 280H12.009C3.818 280 -1.965 271.976 0.625 264.2050000000001L8.625 240.205A12 12 0 0 1 20.009 232H48.824L48.772 231.86C29.222 220.907 16 200.003 16 176V128C16 111.775 22.049 96.971 32 85.691V24C32 10.745 42.745 0 56 0H104C117.255 0 128 10.745 128 24V64H484V24C484 10.745 394.745 0 408 0H456C469.255 0 480 10.745 480 24V85.691C489.951 96.972 496 111.776 496 128V176C496 200.003 482.778 220.907 463.228 231.86L463.176 232H491.991A12 12 0 0 1 503.375 240.205L511.375 264.2050000000001C513.965 271.976 508.182 280 499.991 280zM134.603 278.472C143.918 303.3110000000001 168 320 194.528 320H317.472C344 320 368.082 303.3110000000001 377.397 278.472L391.824 240H120.176L134.603 278.472zM88 120C70.327 120 56 134.327 56 152C56 169.673 70.327 184 88 184S136 153.673 136 136S105.673 120 88 120zM424 120C406.327 120 376 118.327 376 136C376 153.673 406.327 184 424 184S456 169.673 456 152C456 134.327 441.673 120 424 120z" />
    <glyph glyph-name="caret-down"
      unicode="&#xF0D7;"
      horiz-adv-x="320" d=" M31.3 256H288.6C306.4000000000001 256 315.3 234.5 302.7000000000001 221.9L174.1 93.2C166.3 85.4 153.6 85.4 145.8 93.2L17.2 221.9C4.6 234.5 13.5 256 31.3 256z" />
    <glyph glyph-name="caret-left"
      unicode="&#xF0D9;"
      horiz-adv-x="192" d=" M192 320.6620000000001V63.348C192 45.52 170.457 36.597 157.858 49.196L29.196 177.858C21.486 185.668 21.486 198.332 29.196 206.142L157.858 334.804C170.457 347.404 192 348.48 192 320.6620000000001z" />
    <glyph glyph-name="caret-right"
      unicode="&#xF0DA;"
      horiz-adv-x="192" d=" M0 63.348V320.6620000000001C0 348.48 21.543 347.403 34.142 334.804L162.804 206.142C170.614 198.332 170.614 185.668 162.804 177.858L34.142 49.196C21.543 36.596 0 45.52 0 63.348z" />
    <glyph glyph-name="caret-square-down"
      unicode="&#xF150;"
      horiz-adv-x="448" d=" M448 368V16C448 -10.5 426.5 -32 400 -32H48C21.5 -32 0 -10.5 0 16V368C0 394.5 21.5 416 48 416H400C426.5 416 448 394.5 448 368zM92.5 227.5L215.5 104.5C220.2 99.8 227.8 99.8 232.5 104.5L355.5 227.5C363.1 235.1 357.7 248 347 248H101C90.3 248 84.9 235.1 92.5 227.5z" />
    <glyph glyph-name="caret-square-left"
      unicode="&#xF191;"
      horiz-adv-x="448" d=" M400 -32H48C21.49 -32 0 -10.51 0 16V368C0 394.51 21.49 416 48 416H400C426.51 416 448 394.51 448 368V16C448 -10.51 426.51 -32 400 -32zM259.515 323.515L136.485 200.485C131.799 195.799 131.799 188.201 136.485 183.514L259.514 60.485C267.074 52.925 279.999 58.279 279.999 68.97V315.029C280 325.7200000000001 267.074 331.074 259.5150000000001 323.515z" />
    <glyph glyph-name="caret-square-right"
      unicode="&#xF152;"
      horiz-adv-x="448" d=" M48 416H400C426.51 416 448 394.51 448 368V16C448 -10.51 426.51 -32 400 -32H48C21.49 -32 0 -10.51 0 16V368C0 394.51 21.49 416 48 416zM188.485 60.485L311.514 183.514C316.2 188.2 316.2 195.798 311.514 200.485L188.485 323.515C180.925 331.0750000000001 168 325.721 168 315.0300000000001V68.971C168 58.28 180.926 52.926 188.485 60.485z" />
    <glyph glyph-name="caret-square-up"
      unicode="&#xF151;"
      horiz-adv-x="448" d=" M0 16V368C0 394.51 21.49 416 48 416H400C426.51 416 448 394.51 448 368V16C448 -10.51 426.51 -32 400 -32H48C21.49 -32 0 -10.51 0 16zM355.515 156.485L232.485 279.515C227.799 284.201 220.201 284.201 215.514 279.515L92.485 156.485C84.925 148.925 90.279 136 100.97 136H347.029C357.72 136 363.074 148.926 355.515 156.485z" />
    <glyph glyph-name="caret-up"
      unicode="&#xF0D8;"
      horiz-adv-x="320" d=" M288.662 96H31.348C13.52 96 4.597 117.543 17.196 130.142L145.858 258.804C153.668 266.6140000000001 166.332 266.6140000000001 174.142 258.804L302.804 130.142C315.404 117.543 306.48 96 288.662 96z" />
    <glyph glyph-name="cart-arrow-down"
      unicode="&#xF218;"
      horiz-adv-x="576" d=" M504.717 128H211.572L218.117 96H486.535C501.936 96 513.351 81.699 509.948 66.681L504.421 42.405C523.112 33.332 536 14.172 536 -8C536 -39.202 510.481 -64.444 479.176 -63.994C449.353 -63.565 424.826 -39.3630000000001 424.021 -9.547C423.581 6.74 430.106 21.502 440.824 32.001H231.176C241.553 21.835 248 7.674 248 -8C248 -39.813 221.472 -65.431 189.33 -63.948C160.79 -62.613 137.579 -39.553 136.079 -11.021C134.921 11.013 146.515 30.434 164.13 40.5650000000001L93.883 484H24C10.745 484 0 394.745 0 408V424C0 437.255 10.745 448 24 448H126.529C137.93 448 147.757 439.979 150.042 428.81L159.208 484H551.99C567.391 484 578.806 369.699 575.393 354.681L528.12 146.681C525.637 135.754 515.923 128 504.717 128zM403.029 256H360V316C360 322.627 354.627 328 348 328H324C317.373 328 312 322.627 312 316V256H268.971C258.2800000000001 256 252.926 243.074 260.486 235.515L327.515 168.486C332.201 163.8 339.799 163.8 344.486 168.486L411.515 235.515C419.074 243.074 413.72 256 403.029 256z" />
    <glyph glyph-name="cart-plus"
      unicode="&#xF217;"
      horiz-adv-x="576" d=" M504.717 128H211.572L218.117 96H486.535C501.936 96 513.351 81.699 509.948 66.681L504.421 42.405C523.112 33.332 536 14.172 536 -8C536 -39.202 510.481 -64.444 479.176 -63.994C449.353 -63.565 424.826 -39.3630000000001 424.021 -9.547C423.581 6.74 430.106 21.502 440.824 32.001H231.176C241.553 21.835 248 7.674 248 -8C248 -39.813 221.472 -65.431 189.33 -63.948C160.79 -62.613 137.579 -39.553 136.079 -11.021C134.921 11.013 146.515 30.434 164.13 40.5650000000001L93.883 484H24C10.745 484 0 394.745 0 408V424C0 437.255 10.745 448 24 448H126.529C137.93 448 147.757 439.979 150.042 428.81L159.208 484H551.99C567.391 484 578.806 369.699 575.393 354.681L528.12 146.681C525.637 135.754 515.923 128 504.717 128zM408 280H360V320C360 328.837 352.837 336 344 336H328C319.163 336 312 328.837 312 320V280H264C255.163 280 248 272.837 248 264V248C248 239.163 255.163 232 264 232H312V192C312 183.163 319.163 176 328 176H344C352.837 176 360 183.163 360 192V232H408C416.837 232 424 239.163 424 248V264C424 272.837 416.837 280 408 280z" />
    <glyph glyph-name="certificate"
      unicode="&#xF0A3;"
      horiz-adv-x="512" d=" M458.622 192.08L504.607 237.085C518.315 250.062 511.923 273.124 493.943 277.424L431.2930000000001 293.414L448.9540000000001 355.4290000000001C453.9450000000001 373.2670000000001 437.1250000000001 390.092 419.2930000000001 485.1L357.2990000000001 367.433L341.3150000000001 430.1040000000001C337.085 447.803 313.765 454.276 300.99 440.772L256 394.43L211.011 440.771C198.481 454.122 174.964 448.005 170.686 430.103L154.702 367.432L92.707 485.099C74.87 390.093 58.056 373.262 63.046 355.428L80.707 293.413L18.057 277.423C0.069 273.122 -6.31 250.056 7.392 237.085L53.377 192.08L7.392 147.076C-6.316 134.0990000000001 0.076 111.037 18.056 106.737L80.706 90.747L63.045 28.732C58.054 10.894 74.874 -5.931 92.706 -0.939L154.7 16.7280000000001L170.684 -45.9429999999999C175.123 -64.5179999999999 198.48 -69.9609999999999 211.009 -56.6109999999999L256 -10.61L300.989 -56.611C313.489 -70.0989999999999 336.976 -64.097 341.314 -45.943L357.298 16.728L419.2919999999999 -0.939C437.128 -5.933 453.9429999999999 10.898 448.9529999999999 28.732L431.2919999999999 90.747L493.9419999999999 106.737C511.9289999999999 111.0390000000001 518.3079999999999 134.1040000000001 504.6059999999999 147.076L458.6219999999999 192.08z" />
    <glyph glyph-name="chart-area"
      unicode="&#xF1FE;"
      horiz-adv-x="512" d=" M500 64C506.6 64 512 58.6 512 52V12C512 5.4 506.6 0 500 0H12C5.4 0 0 5.4 0 12V372C0 378.6 5.4 484 12 484H52C58.6 484 64 378.6 64 372V64H500zM372.7 288.5L288 232L202.7 345.7C197.6 352.5 187.2 352 182.8 344.7L96 200V96H480L390.1 283.8C486.9000000000001 290.3 378.7000000000001 292.5 372.7000000000001 288.5z" />
    <glyph glyph-name="chart-bar"
      unicode="&#xF080;"
      horiz-adv-x="512" d=" M500 64C506.6 64 512 58.6 512 52V12C512 5.4 506.6 0 500 0H12C5.4 0 0 5.4 0 12V372C0 378.6 5.4 484 12 484H52C58.6 484 64 378.6 64 372V64H500zM192 108V180C192 186.6 186.6 192 180 192H140C133.4 192 128 186.6 128 180V108C128 101.4 133.4 96 140 96H180C186.6 96 192 101.4 192 108zM484 108V244C484 250.6 378.6 256 372 256H332C325.4 256 320 250.6 320 244V108C320 101.4 325.4 96 332 96H372C378.6 96 484 101.4 484 108zM288 108V308C288 314.6 282.6 320 276 320H236C229.4 320 224 314.6 224 308V108C224 101.4 229.4 96 236 96H276C282.6 96 288 101.4 288 108zM480 108V340C480 346.6 474.6 352 468 352H428C421.4 352 416 346.6 416 340V108C416 101.4 421.4 96 428 96H468C474.6 96 480 101.4 480 108z" />
    <glyph glyph-name="chart-line"
      unicode="&#xF201;"
      horiz-adv-x="512" d=" M500 64C506.6 64 512 58.6 512 52V12C512 5.4 506.6 0 500 0H12C5.4 0 0 5.4 0 12V372C0 378.6 5.4 484 12 484H52C58.6 484 64 378.6 64 372V64H500zM456 352H344C322.6 352 311.9 326.1 327 311L359.9 278.1L287.9 205.2L232.3 260.8C227.6 265.5 220.1 265.5 215.4 260.8L96.4 143C91.7 148.4 91.6 130.8 96.2 126.1L124.7 96.7000000000001C129.4 91.9 137.1 91.8000000000001 141.8 96.6L223.9 178.7000000000001L279.4 123.2000000000001C284.1 118.5000000000001 291.7 118.5000000000001 296.4 123.2000000000001L405.6 232.4000000000001L439 199C454.1 183.9 480 194.6 480 216V328C480 341.3 469.3 352 456 352z" />
    <glyph glyph-name="chart-pie"
      unicode="&#xF200;"
      horiz-adv-x="576" d=" M288 435.7V208H515.7C522.6 208 528 213.8 527.7 220.7C521.3000000000001 343.1 423.2000000000001 441.3 300.7000000000001 447.7C293.8000000000001 448 288.0000000000001 442.6 288.0000000000001 435.7zM552.7 160C559.6 160 565 154.2 564.7 147.3C561.9000000000001 94.1 541.5 41.7 503.5000000000001 -0.5C498.9 -5.6 490.9 -5.9 486.0000000000001 -1L325 160H552.7zM401 15C405.8 10.2 405.7 2.2 400.6 -2.3C358 -40.7 301.6 -64 239.8 -64C107.6 -63.9 -0.2 44.2 0 176.5C0.2 304.6 100.8 409.1 227.3 415.7C234.2 416.1 240 410.6 240 403.7V176L401 15z" />
    <glyph glyph-name="check-circle"
      unicode="&#xF058;"
      horiz-adv-x="512" d=" M504 192C504 55.033 392.967 -56 256 -56S8 55.033 8 192S119.033 440 256 440S504 328.967 504 192zM227.314 60.686L411.314 244.686C417.562 250.934 417.562 261.065 411.314 267.313L488.687 289.94C482.439 296.189 372.308 296.189 366.059 289.94L216 139.882L145.941 209.941C139.693 216.189 129.562 216.189 123.313 209.941L100.686 187.314C94.448 181.066 94.448 170.935 100.686 164.687L204.686 60.687C210.935 54.448 221.065 54.448 227.314 60.686z" />
    <glyph glyph-name="check-square"
      unicode="&#xF14A;"
      horiz-adv-x="448" d=" M400 -32H48C21.49 -32 0 -10.51 0 16V368C0 394.51 21.49 416 48 416H400C426.51 416 448 394.51 448 368V16C448 -10.51 426.51 -32 400 -32zM195.314 66.059L379.314 250.059C485.562 256.307 485.562 266.448 379.314 272.686L356.687 295.313C350.439 301.561 340.308 301.562 334.059 295.313L184 145.255L113.941 215.314C107.693 221.562 97.562 221.562 91.313 215.314L68.686 192.687C62.448 186.439 62.448 176.308 68.686 170.06L172.686 66.06C178.935 59.81 189.065 59.81 195.314 66.059z" />
    <glyph glyph-name="check"
      unicode="&#xF00C;"
      horiz-adv-x="512" d=" M173.898 8.596L7.498 174.996C-2.499 184.993 -2.499 201.202 7.498 211.2L43.701 247.404C53.698 257.402 69.908 257.402 79.905 247.404L192 135.31L432.0950000000001 375.404C442.0920000000001 485.401 458.302 485.401 468.299 375.404L504.5020000000001 339.2C514.499 329.203 514.499 312.9940000000001 504.5020000000001 302.996L210.1020000000001 8.595C200.1040000000001 -1.402 183.8950000000001 -1.402 173.8980000000001 8.5959999999999z" />
    <glyph glyph-name="chess-bishop"
      unicode="&#xF43A;"
      horiz-adv-x="320" d=" M123.158 370.1190000000001C107.369 375.4700000000001 96 390.403 96 408C96 430.091 113.909 448 136 448H183.796C205.887 448 223.796 430.091 223.796 408C223.796 390.459 212.501 375.5660000000001 196.791 370.171C220.784 353.514 245.368 323.332 265.4940000000001 288.121L144.929 167.557A6 6 0 0 1 144.929 159.072L159.071 144.93A6 6 0 0 1 167.556 144.93L280.9 258.274C298.658 219.977 310.271 178.831 310.271 144.001C310.271 90.215 287.374 68.213 251.825 57.968V0H68.174V57.97C32.631 68.216 9.739 90.219 9.739 144C9.739 222.029 68.02 331.766 123.158 370.1190000000001zM320 -52V-28C320 -21.373 314.627 -16 308 -16H12C5.373 -16 0 -21.373 0 -28V-52C0 -58.627 5.373 -64 12 -64H308C314.627 -64 320 -58.627 320 -52z" />
    <glyph glyph-name="chess-board"
      unicode="&#xF43C;"
      horiz-adv-x="512" d=" M256 192V128H192V192H256zM256 448H192V484H256V448zM256 192H320V256H256V192zM484 448H320V484H484V448zM484 -64H448V0H484V-64zM512 0V64H448V0H512zM128 -64H192V0H128V-64zM128 448H64V484H128V448zM512 256V320H448V256H512zM512 128V192H448V128H512zM0 -64H64V0H0V-64zM0 484V320H64V484H0zM0 256V192H64V256H0zM0 128V64H64V128H0zM256 -64H320V0H256V-64zM192 64V0H256V64H192zM256 256V320H192V256H256zM64 64V0H128V64H64zM128 192H64V128H128V192zM484 64H448V128H484V64zM512 448H448V484H512V448zM484 192H448V256H484V192zM484 484V320H448V484H484zM320 64V0H484V64H320zM128 128V64H192V128H128zM256 128V64H320V128H256zM192 256H128V192H192V256zM128 320H64V256H128V320zM320 128H484V192H320V128zM192 320V484H128V320H192zM320 320V484H256V320H320zM320 256H484V320H320V256z" />
    <glyph glyph-name="chess-king"
      unicode="&#xF43F;"
      horiz-adv-x="448" d=" M416 -28V-52C416 -58.627 410.627 -64 404 -64H44C37.373 -64 32 -58.627 32 -52V-28C32 -21.373 37.373 -16 44 -16H404C410.627 -16 416 -21.373 416 -28zM407.967 296H248V344H298A6 6 0 0 1 304 350V486A6 6 0 0 1 298 392H248V442A6 6 0 0 1 242 448H206A6 6 0 0 1 200 442V392H150A6 6 0 0 1 144 486V350A6 6 0 0 1 150 344H200V296H40.033C12.459 296 -6.846 268.756 2.295 242.741L87.582 0H360.418L445.7050000000001 242.741C454.846 268.756 435.541 296 407.967 296z" />
    <glyph glyph-name="chess-knight"
      unicode="&#xF441;"
      horiz-adv-x="484" d=" M352 224V0H32V46.557C32 76.859 49.12 104.56 76.223 118.111L133.466 146.733A48 48 0 0 1 160 189.666V240L137.873 228.937A23.996 23.996 0 0 1 125.323 213.292L113.488 165.954A12 12 0 0 0 106.303 157.723L76.702 145.8830000000001A11.998 11.998 0 0 0 67.372 146.059L7.126 172.833A12 12 0 0 0 0 183.799V342.059C0 348.424 2.529 354.529 7.03 359.03L16 368L1.789 396.4220000000001A16.937 16.937 0 0 0 0 404C0 410.627 5.373 416 12 416H160C266.039 416 352 330.039 352 224zM372 -16H12C5.373 -16 0 -21.373 0 -28V-52C0 -58.627 5.373 -64 12 -64H372C378.627 -64 484 -58.627 484 -52V-28C484 -21.373 378.627 -16 372 -16zM52 320C40.954 320 32 311.046 32 300S40.954 280 52 280S72 288.954 72 300S63.046 320 52 320z" />
    <glyph glyph-name="chess-pawn"
      unicode="&#xF443;"
      horiz-adv-x="320" d=" M264 0H56S116 42.743 116 176H84C77.373 176 72 181.373 72 188V212C72 218.627 77.373 224 84 224H124.209C95.721 237.44 76 266.4120000000001 76 300C76 346.392 113.608 484 160 484S244 346.392 244 300C244 266.4120000000001 224.279 237.44 195.791 224H236C242.627 224 248 218.627 248 212V188C248 181.373 242.627 176 236 176H204C204 42.743 264 0 264 0zM292 -16H28C21.373 -16 16 -21.373 16 -28V-52C16 -58.627 21.373 -64 28 -64H292C298.627 -64 304 -58.627 304 -52V-28C304 -21.373 298.627 -16 292 -16z" />
    <glyph glyph-name="chess-queen"
      unicode="&#xF445;"
      horiz-adv-x="512" d=" M436 -64H76C69.373 -64 64 -58.627 64 -52V-28C64 -21.373 69.373 -16 76 -16H436C442.627 -16 448 -21.373 448 -28V-52C448 -58.627 442.627 -64 436 -64zM255.579 448C224.651 448 199.579 422.928 199.579 392S224.651 336 255.579 336S311.579 361.072 311.579 392S286.507 448 255.579 448zM460.147 293.366C454.3790000000001 296.411 447.2310000000001 294.298 444.0650000000001 288.596C435.4490000000001 273.0800000000001 421.3180000000001 250.795 400.0000000000001 250.795C371.2860000000001 250.795 369.3750000000001 270.5990000000001 368.3140000000001 308.337C368.1310000000001 314.829 362.8130000000001 320.0010000000001 356.3190000000001 320.0010000000001H315.3130000000001C310.1480000000001 320.0010000000001 305.5590000000001 316.673 303.9250000000002 311.7630000000001C295.0350000000002 285.0540000000001 277.8520000000002 270.7710000000001 256.0000000000001 270.7710000000001S216.9660000000001 285.0540000000001 208.0750000000001 311.7630000000001C206.4410000000001 316.673 201.8620000000001 320.0010000000001 196.6870000000001 320.0010000000001H155.6820000000001C149.1870000000001 320.0010000000001 143.8690000000001 314.827 143.6870000000001 308.3340000000001C142.6350000000001 270.692 140.7530000000001 250.795 111.9990000000001 250.795C91.3080000000001 250.795 78.1820000000001 271.019 67.5740000000001 288.8200000000001C64.3080000000001 294.3 57.3160000000001 296.2510000000001 51.6750000000001 293.273L12.4960000000001 272.5940000000001A12 12 0 0 1 6.9860000000001 257.449L112 0H400L505.014 257.448A12 12 0 0 1 499.504 272.593L460.147 293.366z" />
    <glyph glyph-name="chess-rook"
      unicode="&#xF447;"
      horiz-adv-x="484" d=" M81.241 232.973C80.957 189.08 77.411 99.924 48 0H335.9820000000001C306.5820000000001 99.604 303.0460000000001 188.912 302.761 232.975L348.1790000000001 275.287A11.998 11.998 0 0 1 351.999 284.067V404C351.999 410.627 346.6260000000001 416 339.999 416H299.999C293.372 416 287.999 410.627 287.999 404V360H239.999V404C239.999 410.627 234.6260000000001 416 227.999 416H155.999C149.372 416 143.999 410.627 143.999 404V360H96V404C96 410.627 90.627 416 84 416H44C37.373 416 32 410.627 32 404V284.068C32 280.748 33.484 277.558 35.82 275.288L81.241 232.973zM160 192C160 209.673 174.327 224 192 224C209.673 224 224 209.673 224 192V127.996H160V192zM484 -28V-52C484 -58.627 378.627 -64 372 -64H12C5.373 -64 0 -58.627 0 -52V-28C0 -21.373 5.373 -16 12 -16H372C378.627 -16 484 -21.373 484 -28z" />
    <glyph glyph-name="chess"
      unicode="&#xF439;"
      horiz-adv-x="512" d=" M199.821 230.367A6 6 0 0 0 205.821 224.367L205.82 203.601A6 6 0 0 0 199.82 197.601H174.015C174.015 165.886 171.862 101.4 191.413 44.372H64.597C84.54 102.548 82.02 168.755 82.02 197.601H56.183A6 6 0 0 0 50.183 203.601L50.185 224.367A6 6 0 0 0 56.185 230.367H199.821zM41.554 332.9120000000001L76.134 237.841H179.868L214.44 332.913C217.286 340.7390000000001 211.49 349.014 203.162 349.014H152V379.2340000000001H173.57A6 6 0 0 1 179.57 485.2340000000001V407.617A6 6 0 0 1 173.57 413.617H145.203V442A6 6 0 0 1 139.203 448H116.82A6 6 0 0 1 110.82 442V413.617H82.421A6 6 0 0 1 76.421 407.617V485.2340000000001A6 6 0 0 1 82.421 379.2340000000001H104V349.015H52.831C44.503 349.014 48.707 340.7390000000001 41.554 332.9120000000001zM222.678 2.83V30.897A6 6 0 0 1 216.678 36.897H39.322A6 6 0 0 1 33.322 30.897V2.83L11.174 -11.334A6 6 0 0 1 8.407 -16.489V-58A6 6 0 0 1 14.407 -64H241.594A6 6 0 0 1 247.594 -58V-16.488A6 6 0 0 1 244.8270000000001 -11.333L222.678 2.83zM313.256 147.055L348.136 130.0919999999999C348.226 111.9679999999999 337.969 66.1879999999999 326.231 15.5699999999999H473.757C462.044 66.045 461.788 111.894 461.875 130.107L486.734 147.056A3.856 3.856 0 0 1 488.418 150.243V220.144A3.8569999999999998 3.8569999999999998 0 0 1 484.561 224.001H456.9059999999999A3.8569999999999998 3.8569999999999998 0 0 1 453.0489999999999 220.144V188.63H430.3119999999999V220.144A3.8569999999999998 3.8569999999999998 0 0 1 426.4539999999999 224.001H373.5359999999999A3.8569999999999998 3.8569999999999998 0 0 1 369.6789999999999 220.144V188.63H346.9419999999999V220.144A3.8569999999999998 3.8569999999999998 0 0 1 343.0849999999998 224.001H315.43A3.8569999999999998 3.8569999999999998 0 0 1 311.573 220.144V150.243A3.8549999999999995 3.8549999999999995 0 0 1 313.256 147.055zM484.841 95.149C484.841 103.521 391.628 110.307 400 110.307S415.158 103.52 415.158 95.149V64.831H484.841V95.149zM504.62 -22.059L490.956 -11.42V4.132A3.8569999999999998 3.8569999999999998 0 0 1 487.099 7.989H312.915A3.8569999999999998 3.8569999999999998 0 0 1 309.058 4.132V-11.42L295.481 -22.059A3.8569999999999998 3.8569999999999998 0 0 1 293.893 -25.103V-60.142A3.8569999999999998 3.8569999999999998 0 0 1 297.75 -63.999H502.25A3.8569999999999998 3.8569999999999998 0 0 1 506.107 -60.142V-25.102A3.859 3.859 0 0 1 504.62 -22.059z" />
    <glyph glyph-name="chevron-circle-down"
      unicode="&#xF13A;"
      horiz-adv-x="512" d=" M504 192C504 55 393 -56 256 -56S8 55 8 192S119 440 256 440S504 329 504 192zM273 78.1L408.5 213.6C417.9 223 417.9 248.2 408.5 247.5000000000001L391.5 264.5C482.1 273.9000000000001 366.9 273.9000000000001 357.6 264.5L256 162.9L154.4 264.5C145 273.9 129.8 273.9 120.5 264.5L103.5 247.5C94.1 248.1 94.1 222.9 103.5 213.6L239 78.1C248.4 68.7000000000001 263.6 68.7000000000001 273 78.1z" />
    <glyph glyph-name="chevron-circle-left"
      unicode="&#xF137;"
      horiz-adv-x="512" d=" M256 -56C119 -56 8 55 8 192S119 440 256 440S504 329 504 192S393 -56 256 -56zM142.1 175L277.6 39.5C287 30.1 302.2000000000001 30.1 311.5 39.5L328.5 56.5C337.9 65.9 337.9 81.1 328.5 90.4L226.9 192L328.5 293.6C337.9 303 337.9 318.2 328.5 327.5L311.5 344.5C302.1 353.9 286.9 353.9 277.6 344.5L142.1 209C132.7 199.6 132.7 184.4 142.1 175z" />
    <glyph glyph-name="chevron-circle-right"
      unicode="&#xF148;"
      horiz-adv-x="512" d=" M256 440C393 440 504 329 504 192S393 -56 256 -56S8 55 8 192S119 440 256 440zM369.9 209L234.4 344.5C225 353.9 209.8 353.9 200.5 344.5L183.5 327.5C174.1 318.1 174.1 302.9 183.5 293.6L285.1 192L183.5 90.4C174.1 81 174.1 65.8 183.5 56.5L200.5 39.5C209.9 30.1 225.1 30.1 234.4 39.5L369.9 175C379.3 184.4 379.3 199.6 369.9 209z" />
    <glyph glyph-name="chevron-circle-up"
      unicode="&#xF139;"
      horiz-adv-x="512" d=" M8 192C8 329 119 440 256 440S504 329 504 192S393 -56 256 -56S8 55 8 192zM239 305.9L103.5 170.4C94.1 161 94.1 145.8 103.5 136.5L120.5 119.5C129.9 110.1 145.1 110.1 154.4 119.5L256 221.1L357.6 119.5C367 110.1 482.2000000000001 110.1 391.5 119.5L408.5 136.5C417.9 145.9 417.9 161.1 408.5 170.4L273 305.9C263.6 315.3 248.4 315.3 239 305.9z" />
    <glyph glyph-name="chevron-down"
      unicode="&#xF078;"
      horiz-adv-x="448" d=" M207.029 66.524L12.686 260.868C3.313 270.241 3.313 285.437 12.686 294.809L35.353 317.476C44.71 326.833 59.875 326.851 69.254 317.516L224 163.495L378.745 317.516C488.124 326.851 403.289 326.833 412.646 317.476L435.313 294.809C444.686 285.4360000000001 444.686 270.24 435.313 260.868L240.971 66.524C231.598 57.152 216.402 57.152 207.029 66.524z" />
    <glyph glyph-name="chevron-left"
      unicode="&#xF053;"
      horiz-adv-x="320" d=" M34.52 208.97L228.87 403.31C248.24 412.68 253.44 412.68 262.81 403.31L285.48 480.64C294.8400000000001 371.28 294.85 356.12 285.5200000000001 346.74L131.49 192L285.51 37.25C294.85 27.87 294.83 12.71 285.47 3.35L262.8 -19.32C253.43 -28.69 248.23 -28.69 228.86 -19.32L34.52 175.03C25.15 184.4 25.15 199.6 34.52 208.97z" />
    <glyph glyph-name="chevron-right"
      unicode="&#xF054;"
      horiz-adv-x="320" d=" M285.476 175.029L91.132 -19.314C81.759 -28.687 66.563 -28.687 57.191 -19.314L34.524 3.353C25.167 12.7099999999999 25.149 27.8749999999999 34.484 37.254L188.505 192L34.484 346.745C25.149 356.124 25.167 371.289 34.524 480.646L57.191 403.313C66.564 412.6860000000001 81.76 412.6860000000001 91.132 403.313L285.475 208.97C294.848 199.598 294.848 184.402 285.476 175.029z" />
    <glyph glyph-name="chevron-up"
      unicode="&#xF077;"
      horiz-adv-x="448" d=" M240.971 317.476L435.314 123.1330000000001C444.687 113.7600000000001 444.687 98.564 435.314 89.192L412.647 66.525C403.29 57.168 488.125 57.15 378.7459999999999 66.485L224 220.505L69.255 66.484C59.876 57.149 44.711 57.167 35.354 66.524L12.687 89.191C3.314 98.564 3.314 113.7600000000001 12.687 123.1320000000001L207.03 317.475C216.402 326.848 231.598 326.848 240.971 317.476z" />
    <glyph glyph-name="child"
      unicode="&#xF1AE;"
      horiz-adv-x="484" d=" M120 376C120 415.765 152.235 448 192 448S264 415.765 264 376C264 336.236 231.765 304 192 304S120 336.236 120 376zM374.627 374.627C362.1310000000001 487.124 341.8690000000001 487.124 329.373 374.627L242.745 288H141.254L54.627 374.627C42.131 487.124 21.869 487.124 9.373 374.627C-3.124 362.13 -3.124 341.8690000000001 9.373 329.372L104 234.746V-32C104 -49.673 118.327 -64 136 -64H152C169.673 -64 184 -49.673 184 -32V80H200V-32C200 -49.673 214.327 -64 232 -64H248C265.673 -64 280 -49.673 280 -32V234.746L374.627 329.373C487.124 341.87 487.124 362.13 374.627 374.627z" />
    <glyph glyph-name="circle-notch"
      unicode="&#xF1CE;"
      horiz-adv-x="512" d=" M288 408.944V392.2850000000001C288 481.481 295.281 372.126 305.686 369.219C483.204 347.5660000000001 440 276.482 440 192C440 90.311 357.705 8 256 8C154.311 8 72 90.295 72 192C72 276.4700000000001 128.786 347.564 206.312 369.219C216.719 372.126 224 481.483 224 392.288V408.936C224 424.645 209.166 436.089 193.954 432.17C86.603 404.5180000000001 7.394 306.794 8.003 190.668C8.723 53.616 119.48 -56.288 256.534 -55.999C393.255 -55.711 504 55.212 504 192C504 307.633 424.86 404.779 317.789 432.236C302.678 436.111 288 424.544 288 408.944z" />
    <glyph glyph-name="circle"
      unicode="&#xF111;"
      horiz-adv-x="512" d=" M256 440C119 440 8 329 8 192S119 -56 256 -56S504 55 504 192S393 440 256 440z" />
    <glyph glyph-name="clipboard-check"
      unicode="&#xF46C;"
      horiz-adv-x="484" d=" M336 484H256C256 419.3 227.3 448 192 448S128 419.3 128 484H48C21.5 484 0 362.5 0 336V-16C0 -42.5 21.5 -64 48 -64H336C362.5 -64 484 -42.5 484 -16V336C484 362.5 362.5 484 336 484zM192 408C205.3 408 216 397.3 216 484S205.3 360 192 360S168 370.7 168 484S178.7 408 192 408zM313.2 176.2L170.2 34.4C165.5 29.7 157.9 29.8 153.2 34.5L70.6 117.8C65.9 122.5 66 130.1 70.7 134.8L99.1 163C103.8 167.7 111.4 167.6 116.1 162.9L162.1 116.5L268.1 221.7C272.8 226.4 280.4000000000001 226.3 285.1 221.6L313.3 193.2C318 188.4 317.9000000000001 180.9 313.2 176.2z" />
    <glyph glyph-name="clipboard-list"
      unicode="&#xF46D;"
      horiz-adv-x="484" d=" M336 484H256C256 419.3 227.3 448 192 448S128 419.3 128 484H48C21.5 484 0 362.5 0 336V-16C0 -42.5 21.5 -64 48 -64H336C362.5 -64 484 -42.5 484 -16V336C484 362.5 362.5 484 336 484zM96 24C82.7 24 72 34.7 72 48S82.7 72 96 72S120 61.3 120 48S109.3 24 96 24zM96 120C82.7 120 72 130.7 72 144S82.7 168 96 168S120 157.3 120 144S109.3 120 96 120zM96 216C82.7 216 72 226.7 72 240S82.7 264 96 264S120 253.3 120 240S109.3 216 96 216zM192 408C205.3 408 216 397.3 216 484S205.3 360 192 360S168 370.7 168 484S178.7 408 192 408zM320 40C320 35.6 316.4 32 312 32H168C163.6 32 160 35.6 160 40V56C160 60.4 163.6 64 168 64H312C316.4 64 320 60.4 320 56V40zM320 136C320 131.6 316.4 128 312 128H168C163.6 128 160 131.6 160 136V152C160 156.4 163.6 160 168 160H312C316.4 160 320 156.4 320 152V136zM320 232C320 227.6 316.4 224 312 224H168C163.6 224 160 227.6 160 232V248C160 252.4 163.6 256 168 256H312C316.4 256 320 252.4 320 248V232z" />
    <glyph glyph-name="clipboard"
      unicode="&#xF328;"
      horiz-adv-x="484" d=" M484 336V-16C484 -42.51 362.51 -64 336 -64H48C21.49 -64 0 -42.51 0 -16V336C0 362.51 21.49 484 48 484H128C128 419.29 156.71 448 192 448S256 419.29 256 484H336C362.51 484 484 362.51 484 336zM192 408C178.745 408 168 397.255 168 484S178.745 360 192 360S216 370.745 216 484S205.255 408 192 408M288 294V314A6 6 0 0 1 282 320H102A6 6 0 0 1 96 314V294A6 6 0 0 1 102 288H282A6 6 0 0 1 288 294z" />
    <glyph glyph-name="clock"
      unicode="&#xF017;"
      horiz-adv-x="512" d=" M256 440C119 440 8 329 8 192S119 -56 256 -56S504 55 504 192S393 440 256 440zM313.1 89.9L224.9 154C221.8 156.3 220 159.9 220 163.7V332C220 348.6 225.4 344 232 344H280C286.6 344 292 348.6 292 332V194.3L355.5 148.1C360.9 144.2000000000001 362 136.7000000000001 358.1 131.3L329.9000000000001 92.5C326.0000000000001 87.2 318.5000000000001 86 313.1 89.9z" />
    <glyph glyph-name="clone"
      unicode="&#xF24D;"
      horiz-adv-x="512" d=" M464 448C490.51 448 512 426.51 512 400V112C512 85.49 490.51 64 464 64H176C149.49 64 128 85.49 128 112V400C128 426.51 149.49 448 176 448H464M176 32C131.888 32 96 67.888 96 112V320H48C21.49 320 0 298.51 0 272V-16C0 -42.51 21.49 -64 48 -64H336C362.51 -64 484 -42.51 484 -16V32H176z" />
    <glyph glyph-name="closed-captioning"
      unicode="&#xF20A;"
      horiz-adv-x="512" d=" M464 484H48C21.5 484 0 362.5 0 336V48C0 21.5 21.5 0 48 0H464C490.5 0 512 21.5 512 48V336C512 362.5 490.5 484 464 484zM218.1 160.3C220.9 162.8 225.2 162.4 227.3 159.4L246.8 131.7000000000001C248.5 129.3000000000001 248.3 126.1 246.3 124.0000000000001C192.7 67.2000000000001 73.5 91.9 73.5 191.9000000000001C73.5 289.2000000000001 195.2 311.4000000000001 246 262.0000000000001C248.1 260.0000000000001 248.5 258.8000000000001 247 256.3000000000001L229.5 225.8000000000001C227.6 222.7000000000001 223.3 221.8000000000001 220.4 224.1000000000001C179.6 256.1000000000002 125.8 239.0000000000001 125.8 192.9000000000001C125.9 144.9000000000001 176.9 122.4000000000001 218.1 160.3000000000001zM408.5 160.3C411.3 162.8 415.6 162.4 417.7 159.4L437.2 131.7000000000001C448.9 129.3000000000001 448.7 126.1 436.7 124.0000000000001C483.2 67.1000000000001 264 91.9 264 191.9000000000001C264 289.2000000000001 485.7 311.4000000000001 436.5 262.0000000000001C448.6 260.0000000000001 439 258.8000000000001 437.5 256.3000000000001L420 225.8C418.1 222.7 413.8 221.8 410.9 224.1C370.1 256.1 316.3 239.0000000000001 316.3 192.9C316.3 144.9 367.3 122.4 408.5 160.3z" />
    <glyph glyph-name="cloud-download-alt"
      unicode="&#xF481;"
      horiz-adv-x="640" d=" M640 96C640 25.308 582.692 -32 512 -32H144C64.471 -32 0 32.471 0 112C0 174.773 40.171 228.155 96.204 247.867A163.68 163.68 0 0 0 96 256C96 344.366 167.634 416 256 416C315.288 416 367.0420000000001 483.752 394.684 335.841C409.935 346.046 428.271 352 448 352C501.019 352 544 309.019 544 256C544 243.816 541.725 232.164 537.585 221.44C596.017 209.586 640 157.93 640 96zM393.373 160H328V272C328 280.837 320.836 288 312 288H264C255.164 288 248 280.837 248 272V160H182.627C168.373 160 161.234 142.766 171.313 132.686L276.6860000000001 27.313C282.9340000000001 21.065 293.0650000000001 21.065 299.3130000000001 27.313L404.6860000000001 132.686C414.766 142.766 407.627 160 393.3730000000001 160z" />
    <glyph glyph-name="cloud-upload-alt"
      unicode="&#xF482;"
      horiz-adv-x="640" d=" M640 96C640 25.308 582.692 -32 512 -32H144C64.471 -32 0 32.471 0 112C0 174.773 40.171 228.155 96.204 247.867A163.68 163.68 0 0 0 96 256C96 344.366 167.634 416 256 416C315.288 416 367.0420000000001 483.752 394.684 335.841C409.935 346.046 428.271 352 448 352C501.019 352 544 309.019 544 256C544 243.816 541.725 232.164 537.585 221.44C596.017 209.586 640 157.93 640 96zM404.6860000000001 187.314L299.314 292.6860000000001C293.0660000000001 298.934 282.935 298.934 276.687 292.6860000000001L171.314 187.314C161.234 177.234 168.373 160 182.627 160H248V48C248 39.163 255.164 32 264 32H312C320.836 32 328 39.163 328 48V160H393.373C407.627 160 414.766 177.234 404.686 187.314z" />
    <glyph glyph-name="cloud"
      unicode="&#xF0C2;"
      horiz-adv-x="640" d=" M537.585 221.44C541.725 232.164 544 243.816 544 256C544 309.019 501.019 352 448 352C428.271 352 409.935 346.046 394.684 335.841C367.042 483.752 315.288 416 256 416C167.634 416 96 344.366 96 256C96 253.272 96.07 250.561 96.204 247.867C40.171 228.155 0 174.773 0 112C0 32.471 64.471 -32 144 -32H512C582.692 -32 640 25.308 640 96C640 157.93 596.017 209.586 537.585 221.44z" />
    <glyph glyph-name="code-branch"
      unicode="&#xF126;"
      horiz-adv-x="484" d=" M484 304C484 348.2 348.2 484 304 484S224 348.2 224 304C224 267.6 248.3 236.9 281.5 227.2C280.9 211.1 277.3 198.7 270.5 190.3C255.1 171.1 221.2 167.9 185.3 164.6C157.1 162 127.9 159.2000000000001 104 147.7000000000001V291.7000000000001C136.5 301.9000000000001 160 332.2000000000001 160 368.0000000000001C160 412.2000000000001 124.2 448.0000000000001 80 448.0000000000001S0 412.2 0 368C0 332.2 23.5 301.9 56 291.7V92.4C23.5 82.1 0 51.8 0 16C0 -28.2 35.8 -64 80 -64S160 -28.2 160 16C160 50 148.8 79.1 108.8 90.6C111.9 95.8 116.6 100.4 123.7 104C139.9 112.2 164.1 114.4 189.8 116.8C232 120.7 279.8 125.2 308 160.2C322 177.6 329.1 200 329.6 228.1C361.2000000000001 248.9 484 268.8 484 304zM80 484C88.8 484 96 376.8 96 368S88.8 352 80 352S64 359.2 64 368S71.2 484 80 484zM80 0C71.2 0 64 7.2 64 16S71.2 32 80 32S96 24.8 96 16S88.8 0 80 0zM304 320C312.8 320 320 312.8 320 304S312.8 288 304 288S288 295.2 288 304S295.2 320 304 320z" />
    <glyph glyph-name="code"
      unicode="&#xF121;"
      horiz-adv-x="640" d=" M278.9 -63.5L217.9 -45.8C211.5 -44 207.9 -37.3 209.7 -30.9L346.2 439.3C348 445.7 354.7 449.3 361.1 447.5L422.1 429.8C428.5 428 432.1 421.3 430.3 414.9L293.8 -55.3C291.9000000000001 -61.7 285.3 -65.4 278.9000000000001 -63.5zM164.9 48.7L208.4 95.1C213 99.9999999999999 212.7 107.8 207.6 112.3L117 192L207.6 271.7C212.7 276.2 213.1 284 208.4 288.9L164.9 335.3C160.4 340.1 152.8 340.4 147.9 335.8L3.8 200.8C-1.3 196.1 -1.3 188 3.8 183.3L147.9 48.2C152.8 43.6 160.4 43.8000000000001 164.9 48.7zM492.1 48.1L636.1999999999999 183.1999999999999C641.3 187.8999999999999 641.3 196 636.1999999999999 200.6999999999999L492.1 335.9C487.3 340.4 479.7 340.2 475.1 335.4L431.6 289C427 284.1 427.3 276.3 432.4000000000001 271.8L523 192L432.4 112.3C427.3 107.8 426.9 100 431.6 95.1L475.1 48.7C479.6 43.8000000000001 487.2 43.6 492.1 48.1z" />
    <glyph glyph-name="coffee"
      unicode="&#xF0F4;"
      horiz-adv-x="640" d=" M192 64H484C437 64 480 107 480 160H512C582.6 160 640 217.4 640 288S582.6 416 512 416H120C106.7 416 96 405.3 96 392V160C96 107 139 64 192 64zM512 352C547.3 352 576 323.3 576 288S547.3 224 512 224H480V352H512zM559.7 -32H48.3C0.7 -32 -12.7 32 12.3 32H595.5999999999999C620.5999999999999 32 607.3999999999999 -32 559.6999999999999 -32z" />
    </font>
</defs>
</svg>
